Тёмная долина / Das finstere Tal / The Dark Valley (Андреас Прохазка / Andreas Prochaska) [2014, Австрия, Германия, драма, вестерн, боевик, HDRip] MVO (Позитив)

Ответить на тему
 
Автор Сообщение

user ®

Стаж: 7 лет 7 месяцев

Сообщений: 20008

Пост Пост: #1 от 12-Ноя-2014 16:55

[Цитировать]

Тёмная долина / Das finstere Tal / The Dark Valley

Год выпуска: 2014
Страна: Австрия, Германия
Жанр: драма, вестерн, боевик
Продолжительность: 01:54:44
Перевод: Профессиональный (многоголосый закадровый) - Позитив
Cубтитры: нет
Режиссер: Андреас Прохазка / Andreas Prochaska
В ролях: Сэм Райли, Тобиас Моретти, Хельмут Хеуслер, Мартин Лойтгеб, Йоханнес Николусси, Клеменс Шик, Флориан Брюкнер, Ганс-Михаэль Реберг, Эрвин Штайнхауэр, Франц Ксавер Брюкнер
Описание: Тайными путями одинокий всадник пробирается в маленький городок высоко в Альпах. Никто не знает, откуда прибыл незнакомец и чего он хочет. Но в одном жители городка уверены — они не хотят, чтобы он оставался здесь.
Автор: Scarabey
Качество видео: HDRip (исходник BDRip 720p)
Формат видео: AVI
Видео: 640x272 (2.35:1), 24 fps, XviD build 73 ~770 kbps avg, 0.18 bit/pixel
Аудио: 48 kHz, MPEG Layer 3, 2 ch, ~128.00 kbps avg

Сэмпл MediaInfo
General
Complete name : D:\Scarabey\[2014] Das finstere Tal 745 MVO\Temnaya_dolina_2014_HDRip_[Scarabey].avi
Format : AVI
Format/Info : Audio Video Interleave
File size : 745 MiB
Duration : 1h 54mn
Overall bit rate : 908 Kbps
Writing application : VirtualDubMod 1.5.10.3 | www.virtualdub-fr.org || (build 2550/release)
Writing library : VirtualDubMod build 2550/release
Video
ID : 0
Format : MPEG-4 Visual
Format profile : Advanced Simple@L5
Format settings, BVOP : 1
Format settings, QPel : No
Format settings, GMC : No warppoints
Format settings, Matrix : Custom
Codec ID : XVID
Codec ID/Hint : XviD
Duration : 1h 54mn
Bit rate : 771 Kbps
Width : 640 pixels
Height : 272 pixels
Display aspect ratio : 2.35:1
Frame rate : 24.000 fps
Color space : YUV
Chroma subsampling : 4:2:0
Bit depth : 8 bits
Scan type : Progressive
Compression mode : Lossy
Bits/(Pixel*Frame) : 0.184
Stream size : 633 MiB (85%)
Writing library : XviD 73
Audio
ID : 1
Format : MPEG Audio
Format version : Version 1
Format profile : Layer 3
Codec ID : 55
Codec ID/Hint : MP3
Duration : 1h 54mn
Bit rate mode : Constant
Bit rate : 128 Kbps
Channel(s) : 2 channels
Sampling rate : 48.0 KHz
Compression mode : Lossy
Stream size : 105 MiB (14%)
Alignment : Aligned on interleaves
Interleave, duration : 42 ms (1.00 video frame)
Interleave, preload duration : 504 ms
Writing library : LAME3.99r
Encoding settings : -m s -V 4 -q 2 -lowpass 17 -b 128
Скриншот с названием фильма Скриншоты
Скачать

Скачать торрент!

Как скачивать? · Что такое торрент? · Рейтинг и ограничения

Сайт не распространяет и не хранит электронные версии произведений, а лишь предоставляет доступ к создаваемому пользователями каталогу ссылок на торрент-файлы, которые содержат только списки хеш-сумм

[Профиль] [ЛС]
Показать сообщения:    
Ответить на тему

Текущее время: Сегодня 18:32

Часовой пояс: GMT + 4



Вы не можете начинать темы
Вы не можете отвечать на сообщения
Вы не можете редактировать свои сообщения
Вы не можете удалять свои сообщения
Вы не можете голосовать в опросах
Вы не можете прикреплять файлы к сообщениям
Вы не можете скачивать файлы