Эксперимент: Зло / The Quiet Ones (Джон Пог / John Pogue) [2014, США, Великобритания, ужасы, BDRip-AVC] Dub

Ответить на тему
 
Автор Сообщение

user ®

Стаж: 7 лет 7 месяцев

Сообщений: 20008

Пост Пост: #1 от 12-Ноя-2014 16:55

[Цитировать]

Эксперимент: Зло
The Quiet Ones
«Эксперимент без принципов и правил»


Страна: США, Великобритания
Жанр: ужасы
Год выпуска: 2014
Продолжительность: 01:38:12
Перевод: Профессиональный (полное дублирование) [Лицензия]
Cубтитры: нет
Оригинальная аудиодорожка: нет
Режиссер:
Джон Пог / John Pogue
В ролях:
Джаред Харрис, Оливия Кук, Сэм Клафлин, Эрин Ричардс, Рори Флек-Бирн, Лори Кэлверт, Альдо Маланд, Макс Пиркис, Трэйси Рэй, Ричард Каннингэм
Описание:
Неортодоксальный профессор, использующий в своей работе спорные методы, и его лучшие ученики проводят серию тестов на молодой пациентке, подводя ее к грани безумия. Эксперимент выходит из-под контроля, и начинают происходить ужасающие мистические явления с необратимыми последствиями. Группа понимает, что вызвала более страшные и темные силы, чем когда-либо могла себе представить, и против них она бессильна.

Релиз:
Автор рипа: Stalker oK
Сэмпл: multi-up
Качество видео: BDRip-AVC [Blu-Ray Remux 1080p / FraMeSToR]
Формат видео: MKV
Видео кодек: AVC
Аудио кодек: AC3
Видео: 1683 Кбит/сек, 928*522 (16:9), в 23,976 кадр/сек, AVC
Аудио: Russian, 448 Кбит/сек, 48,0 КГц, 16 бит, 6 канала(ов), AC-3

MediaInfo
Общее
Уникальный идентификатор : 170543564989463840993997807603953845978 (0x804D7EF0EA51C8E5BFB7BCD6EABE46DA)
Полное имя : G:\Эксперимент Зло The Quiet Ones\Рипы\Eksperiment.Zlo..2014.BDRip-AVC.Dub.1.45Gb...stalkerok.new-team.mkv
Формат : Matroska
Размер файла : 1,46 Гбайт
Продолжительность : 1 ч. 38 м.
Общий поток : 2132 Кбит/сек
Название фильма : The Quiet Ones, 2014 (New-Team) (Rip by Stalker oK)
Дата кодирования : UTC 2014-11-11 18:27:17
Программа кодирования : mkvmerge v6.1.0 ('Old Devil') built on Mar 4 2013 09:10:42
Библиотека кодирования : libebml v1.3.0 + libmatroska v1.4.0
Видео
Идентификатор : 1
Формат : AVC
Формат/Информация : Advanced Video Codec
Профиль формата : High@L4.1
Параметр CABAC формата : Да
Параметр ReFrames формата : 12 кадры
Идентификатор кодека : V_MPEG4/ISO/AVC
Продолжительность : 1 ч. 38 м.
Битрейт : 1683 Кбит/сек
Ширина : 928 пикс.
Высота : 522 пикс.
Соотношение сторон : 16:9
Частота кадров : 23,976 кадр/сек
Цветовое пространство : YUV
Подвыборка цветности : 4:2:0
Битовая глубина : 8 бит
Тип развёртки : Прогрессивная
Бит/(Пиксели*Кадры) : 0.145
Размер потока : 1,13 Гбайт (77%)
Библиотека кодирования : x264 core 142 r2431 ac76440
Настройки программы : cabac=1 / ref=12 / deblock=1:-3:-3 / analyse=0x3:0x133 / me=umh / subme=11 / psy=1 / psy_rd=1.00:0.10 / mixed_ref=1 / me_range=48 / chroma_me=1 / trellis=2 / 8x8dct=1 / cqm=0 / deadzone=21,11 / fast_pskip=0 / chroma_qp_offset=-3 / threads=12 / lookahead_threads=3 / sliced_threads=0 / nr=0 / decimate=0 / interlaced=0 / bluray_compat=0 / constrained_intra=0 / bframes=12 / b_pyramid=2 / b_adapt=2 / b_bias=0 / direct=3 / weightb=1 / open_gop=0 / weightp=2 / keyint=240 / keyint_min=23 / scenecut=40 / intra_refresh=0 / rc_lookahead=60 / rc=2pass / mbtree=0 / bitrate=1683 / ratetol=1.0 / qcomp=0.70 / qpmin=0 / qpmax=69 / qpstep=4 / cplxblur=20.0 / qblur=0.5 / vbv_maxrate=20000 / vbv_bufsize=25000 / nal_hrd=none / filler=0 / ip_ratio=1.25 / pb_ratio=1.15 / aq=2:0.80
Аудио
Идентификатор : 2
Формат : AC-3
Формат/Информация : Audio Coding 3
Расширение режима : CM (complete main)
Идентификатор кодека : A_AC3
Продолжительность : 1 ч. 38 м.
Вид битрейта : Постоянный
Битрейт : 448 Кбит/сек
Канал(ы) : 6 канала(ов)
Расположение каналов : Front: L C R, Side: L R, LFE
Частота : 48,0 КГц
Битовая глубина : 16 бит
Метод сжатия : С потерями
Размер потока : 315 Мбайт (21%)
Заголовок : Дублированный (Лицензия)
Язык : Russian
Меню
00:00:00.000 : en:00:00:00.000
00:09:26.316 : en:00:09:26.316
00:16:08.050 : en:00:16:08.050
00:24:08.697 : en:00:24:08.697
00:34:11.883 : en:00:34:11.883
00:43:07.126 : en:00:43:07.126
00:51:10.776 : en:00:51:10.776
01:00:44.849 : en:01:00:44.849
01:09:31.459 : en:01:09:31.459
01:16:07.813 : en:01:16:07.813
01:27:31.997 : en:01:27:31.997
01:33:44.494 : en:01:33:44.494
Скриншоты
Скачать

Скачать торрент!

Как скачивать? · Что такое торрент? · Рейтинг и ограничения

Сайт не распространяет и не хранит электронные версии произведений, а лишь предоставляет доступ к создаваемому пользователями каталогу ссылок на торрент-файлы, которые содержат только списки хеш-сумм

[Профиль] [ЛС]
Показать сообщения:    
Ответить на тему

Текущее время: Сегодня 14:36

Часовой пояс: GMT + 4



Вы не можете начинать темы
Вы не можете отвечать на сообщения
Вы не можете редактировать свои сообщения
Вы не можете удалять свои сообщения
Вы не можете голосовать в опросах
Вы не можете прикреплять файлы к сообщениям
Вы не можете скачивать файлы