Оставленные / Left Behind (Вик Армстронг / Vic Armstrong) [2014, США, фантастика, триллер, драма, BDRip] Dub

Ответить на тему
 
Автор Сообщение

user ®

Стаж: 7 лет 7 месяцев

Сообщений: 20008

Пост Пост: #1 от 12-Ноя-2014 16:55

[Цитировать]

Оставленные / Left Behind
«Начало конца»
- Страна: США
Жанр: фантастика, триллер, драма
Год выпуска: 2014
Продолжительность: 01:45:34
Перевод: Профессиональный (дублированный)
Cубтитры: нет
Оригинальная аудиодорожка: нет-Режиссер: Вик Армстронг / Vic Armstrong
Сценарий: Пол Лалонд / Paul Lalonde, Джон Патус / John Patus
Продюсер: Эд Клайдсдэйл / Ed Clydesdale, Пол Лалонд / Paul Lalonde
Оператор: Джек Н. Грин / Jack N. Green
Композитор: Джек Ленц / Jack Lenz-В ролях:
Николас Кейдж (Rayford Steele), Чад Майкл Мюррэй (Buck Williams), Касси Томсон (Chloe Steele), Никки Уилан (Hattie Durham), Джордин Спаркс (Shasta Carvell), Лиа Томпсон (Irene Steele), Куинтон Аарон (Chris Smith), Мартин Клебба (Melvin Weir), Лаура Кайот (Neighbor Woman), Стефани Онор (Kimmy).-Бюджет: $16 000 000
Сборы в США: $13 789 306
Сборы в России: $621 230-Мировая премьера: 2 октября 2014
Премьера (РФ): 2 октября 2014, «Top Film Distribution»
Релиз на DVD: 11 ноября 2014, «Lizard Cinema Trade»
Релиз на Blu-ray: 11 ноября 2014, «Lizard Cinema Trade»
-Описание:
История летчика Рэйфорда Стила, столкнувшегося во время рейса с исчезновением нескольких пассажиров прямо из салона самолета. Вскоре становится известно о случаях бесследного исчезновения и в других местах. Людей охватывает паника.-Рейтинг
kinopoisk.ru: 4.200 (2330)
imdb.com: 3.30 (5012)
MPAA: PG-13 - Детям до 13 лет просмотр не желателен-Качество видео: BDRip | исх. ☞ « avproh / / MPEG-4 AVC. Blu-ray RUS. 1080i AVC DTS 5.1 »
Формат видео: AVI ///СОВМЕСТИМО С БЫТОВЫМИ ПЛЕЕРАМИ/// → //SAMPLE//
Видео: 720x304 (2.37:1), 25.000 fps, XviD build 65 ~1522 kbps avg, 0.28 bit/pixel
Аудио: 48.0 kHz, AC3 Dolby Digital, 3/2 (L,C,R,l,r) + LFE ch, ~448.00 kbps avg | DUB
Размер: 1494.84 Mb (1/3 DVD-R)
-MediaInfo
Общее
Полное имя : A:\Фильмы\Left Behind.2014.DUAL.BDRip.XviD.1,46Gb.AC3.avi
Формат : AVI
Формат/Информация : Audio Video Interleave
Размер файла : 1,46 Гбайт
Продолжительность : 1 ч. 45 м.
Общий поток : 1980 Кбит/сек
Программа кодирования : VirtualDubMod 1.5.10.3 | www.virtualdub-fr.org || (build 2550/release)
Библиотека кодирования : VirtualDubMod build 2550/release
Видео
Идентификатор : 0
Формат : MPEG-4 Visual
Профиль формата : Advanced Simple@L5
Параметр BVOP формата : 1
Параметр QPel формата : Нет
Параметр GMC формата : Без точки перехода
Параметр матрицы формата : Выборочная
Идентификатор кодека : XVID
Идентификатор кодека/Подсказка : XviD
Продолжительность : 1 ч. 45 м.
Битрейт : 1522 Кбит/сек
Ширина : 720 пикселей
Высота : 304 пикселя
Соотношение сторон : 2,37:1
Частота кадров : 25,000 кадров/сек
Цветовое пространство : YUV
Субдискретизация насыщенности : 4:2:0
Битовая глубина : 8 бит
Тип развёртки : Прогрессивная
Метод сжатия : С потерями
Бит/(Пиксели*Кадры) : 0.278
Размер потока : 1,12 Гбайт (77%)
Библиотека кодирования : XviD 65
Аудио
Идентификатор : 1
Формат : AC-3
Формат/Информация : Audio Coding 3
Расширение режима : CM (complete main)
Параметр Endianness формата : Big
Идентификатор кодека : 2000
Продолжительность : 1 ч. 45 м.
Вид битрейта : Постоянный
Битрейт : 448 Кбит/сек
Каналы : 6 каналов
Расположение каналов : Front: L C R, Side: L R, LFE
Частота : 48,0 КГц
Битовая глубина : 16 бит
Метод сжатия : С потерями
Размер потока : 338 Мбайт (23%)
Выравнивание : Соединение по промежуткам
Продолжительность промежутка : 40 мс. (1,00 видеокадр)
Время предзагрузки промежутка : 512 мс.
Скриншот c названием фильма Comparison
[url=http://***/forum/viewtopic.php?t=4852929]http://***/forum/viewtopic.php?t=4852929[/url]
http://screenshotcomparison.com/comparison/99855
Скриншоты
Скачать

Скачать торрент!

Как скачивать? · Что такое торрент? · Рейтинг и ограничения

Сайт не распространяет и не хранит электронные версии произведений, а лишь предоставляет доступ к создаваемому пользователями каталогу ссылок на торрент-файлы, которые содержат только списки хеш-сумм

[Профиль] [ЛС]
Показать сообщения:    
Ответить на тему

Текущее время: Сегодня 20:32

Часовой пояс: GMT + 4



Вы не можете начинать темы
Вы не можете отвечать на сообщения
Вы не можете редактировать свои сообщения
Вы не можете удалять свои сообщения
Вы не можете голосовать в опросах
Вы не можете прикреплять файлы к сообщениям
Вы не можете скачивать файлы