Ночной народ / Nightbreed (Клайв Баркер / Clive Barker) [1990, США, ужасы, фэнтези, BDRip 720p] [Режиссёрская версия / Director\'s Cut] VO (Doctor Joker) + Sub Eng + Original Eng

Ответить на тему
 
Автор Сообщение

user ®

Стаж: 7 лет 7 месяцев

Сообщений: 20008

Пост Пост: #1 от 11-Ноя-2014 23:05

[Цитировать]

-Ночной народ / Nightbreed / Режиссёрская версия / Director's Cut-Страна: США
Жанр: ужасы, фэнтези
Год выпуска: 1990
Продолжительность: 02:00:48-Перевод: Любительский (одноголосый закадровый) Алексей "Doctor_Joker" Матвеев
Cубтитры: английские
Оригинальная аудиодорожка: английский-Режиссер: Клайв Баркер / Clive Barker
В ролях: Крэйг Шеффер, Энн Бобби, Дэвид Кроненберг, Чарльз Хэйд, Хью Куэрши, Хью Росс, Даг Брэдли, Катрин Шевалье, Малкольм Смит, Боб Сессионс-Описание: Молодой человек по имени Бун считает себя виновным в серии зверских убийств. В этом его убедил психиатр Декер. Бун ищет спасения в легендарном Мидиане, подземном городе беглецов, где прощаются все грехи. Этот город — убежище «Ночного народа» древней расы чудовищных монстров — мутантов, живых мертвецов, меняющих свой облик и скрывающихся от дневного света и человеческих глаз.
Тепло встреченный «Ночным народом» Бун отныне должен превыше всего ставить безопасность Мидиана. И навсегда забыть Лори, которая любит его и пытается разыскать. А по ее следам идут полиция и Декер, мечтающий уничтожить «Ночной народ»…-Сэмпл: https://yadi.sk/i/Gtn3vDSBcdPbk-Тип релиза: BDRip 720p
Контейнер: MKV
Видео: MPEG-4 AVC Video 9086 Kbps 1280 x 720 p / 23,976 fps / 16:9 / High Profile 4.1
Аудио: DTS Audio Russian 5.1 / 48 kHz / 1509 kbps
Аудио 2: DTS Audio English 5.1 / 48 kHz / 1509 kbps
Формат субтитров: softsub (SRT)
Видеоряд от VietHD
.RELEASE iNFO
RELEASE NAME..: Nightbreed.1990.Director's.Cut.720p.BluRay.DD5.1.x264-VietHDRELEASE SIZE..: 8.42 GiBRUNTIME.......: 2h 0mnViDEO CODEC...: x264, CRF=18.8, High@L4.1FRAMERATE.....: 23.976 fpsBITRATE.......: 9 086 KbpsRESOLUTION....: 1280 x 720AUDIO.........: English AC3 5.1 @ 640 KbpsAUDIO.........: English AAC 2.0 @ 64 kbps | Commentary by Writer/Director..............: Clive Barker and Restoration Producer Mark Alan MillerSUBTITLES.....: English, English SDHCHAPTERS......: IncludedSOURCE........: Director's Cut 1080p Blu-ray AVC DTS-HD MA 5.1-PCH
RELEASE.DATE..: 22/10/2014
.x264 iNFOx264 [info]: frame I:1055 Avg QP:17.86 size:106420x264 [info]: frame P:34026 Avg QP:18.78 size: 66200x264 [info]: frame B:138719 Avg QP:20.30 size: 43498x264 [info]: consecutive B-frames: 1.8% 2.1% 6.0% 8.6% 10.8% 54.5% 6.2% 2.1% 2.3% 3.0% 2.7%encoded 173800 frames, 5.96 fps, 9268.99 kb/sSource vs VietHD vs Scene



MI
General
Unique ID                                : 215404467803548793656553374955800394928 (0xA20D64375CCE6B3CB3E2A225CDF47CB0)
Complete name                            : X:\  -= Фильмы =-\Ночной народ (1990. Nightbreed) 720p.mkv
Format                                   : Matroska
Format version                           : Version 2
File size                                : 10.4 GiB
Duration                                 : 2h 0mn
Overall bit rate                         : 12.3 Mbps
Movie name                               : Release for RuTracker
Encoded date                             : UTC 2014-11-11 00:38:10
Writing application                      : mkvmerge v4.9.1 ('Ich will') сборка от Jul 11 2011 23:53:15
Writing library                          : libebml v1.2.1 + libmatroska v1.1.1
Video
ID                                       : 1
Format                                   : AVC
Format/Info                              : Advanced Video Codec
Format profile                           : High@L4.1
Format settings, CABAC                   : Yes
Format settings, ReFrames                : 9 frames
Codec ID                                 : V_MPEG4/ISO/AVC
Duration                                 : 2h 0mn
Bit rate                                 : 9 028 Kbps
Width                                    : 1 280 pixels
Height                                   : 720 pixels
Display aspect ratio                     : 16:9
Frame rate mode                          : Constant
Frame rate                               : 23.976 fps
Color space                              : YUV
Chroma subsampling                       : 4:2:0
Bit depth                                : 8 bits
Scan type                                : Progressive
Bits/(Pixel*Frame)                       : 0.409
Stream size                              : 7.62 GiB (73%)
Title                                    : Nightbreed.1990.Director's.Cut.720p.BluRay.DD5.1.x264-VietHD
Writing library                          : x264 core 142 r2453 ea0ca51
Encoding settings                        : cabac=1 / ref=9 / deblock=1:-3:-3 / analyse=0x3:0x133 / me=umh / subme=10 / psy=1 / psy_rd=1.05:0.00 / mixed_ref=1 / me_range=16 / chroma_me=1 / trellis=2 / 8x8dct=1 / cqm=0 / deadzone=21,11 / fast_pskip=0 / chroma_qp_offset=-2 / threads=12 / lookahead_threads=3 / sliced_threads=0 / nr=0 / decimate=0 / interlaced=0 / bluray_compat=0 / constrained_intra=0 / bframes=10 / b_pyramid=2 / b_adapt=2 / b_bias=0 / direct=3 / weightb=1 / open_gop=0 / weightp=2 / keyint=250 / keyint_min=23 / scenecut=40 / intra_refresh=0 / rc=crf / mbtree=0 / crf=18.8 / qcomp=0.65 / qpmin=0 / qpmax=69 / qpstep=4 / ip_ratio=1.30 / pb_ratio=1.20 / aq=1:0.75
Language                                 : English
Default                                  : Yes
Forced                                   : No
Audio #1
ID                                       : 2
Format                                   : DTS
Format/Info                              : Digital Theater Systems
Mode                                     : 16
Format settings, Endianness              : Big
Codec ID                                 : A_DTS
Duration                                 : 2h 0mn
Bit rate mode                            : Constant
Bit rate                                 : 1 509 Kbps
Channel(s)                               : 6 channels
Channel positions                        : Front: L C R, Side: L R, LFE
Sampling rate                            : 48.0 KHz
Bit depth                                : 24 bits
Compression mode                         : Lossy
Stream size                              : 1.27 GiB (12%)
Title                                    : Алексей Doctor_Joker Матвеев
Language                                 : Russian
Default                                  : Yes
Forced                                   : No
Audio #2
ID                                       : 3
Format                                   : DTS
Format/Info                              : Digital Theater Systems
Mode                                     : 16
Format settings, Endianness              : Big
Codec ID                                 : A_DTS
Duration                                 : 2h 0mn
Bit rate mode                            : Constant
Bit rate                                 : 1 509 Kbps
Channel(s)                               : 6 channels
Channel positions                        : Front: L C R, Side: L R, LFE
Sampling rate                            : 48.0 KHz
Bit depth                                : 24 bits
Compression mode                         : Lossy
Stream size                              : 1.27 GiB (12%)
Language                                 : English
Default                                  : No
Forced                                   : No
Text
ID                                       : 4
Format                                   : UTF-8
Codec ID                                 : S_TEXT/UTF8
Codec ID/Info                            : UTF-8 Plain Text
Language                                 : English
Default                                  : No
Forced                                   : No
Menu
00:00:00.000                             : en:00:00:00.000
00:05:10.477                             : en:00:05:10.477
00:13:51.873                             : en:00:13:51.873
00:30:36.668                             : en:00:30:36.668
00:41:17.308                             : en:00:41:17.308
00:53:49.560                             : en:00:53:49.560
01:00:18.615                             : en:01:00:18.615
01:09:42.387                             : en:01:09:42.387
01:14:14.867                             : en:01:14:14.867
01:25:50.979                             : en:01:25:50.979
01:34:53.897                             : en:01:34:53.897
01:43:32.373                             : en:01:43:32.373
Скриншоты


Зеркало Цитата:
  • Русский звук с [url=http://***/forum/viewtopic.php?t=4863984]раздачи[/url] [url=http://***/forum/profile.php?mode=viewprofile&u=24766654]Bess80[/url]
Скачать

Скачать торрент!

Как скачивать? · Что такое торрент? · Рейтинг и ограничения

Сайт не распространяет и не хранит электронные версии произведений, а лишь предоставляет доступ к создаваемому пользователями каталогу ссылок на торрент-файлы, которые содержат только списки хеш-сумм

[Профиль] [ЛС]
Показать сообщения:    
Ответить на тему

Текущее время: Сегодня 14:35

Часовой пояс: GMT + 4



Вы не можете начинать темы
Вы не можете отвечать на сообщения
Вы не можете редактировать свои сообщения
Вы не можете удалять свои сообщения
Вы не можете голосовать в опросах
Вы не можете прикреплять файлы к сообщениям
Вы не можете скачивать файлы