Посвященный / The Giver (Филлип Нойс / Phillip Noyce) [2014, США, фантастика, драма, BDRip] [US-Transfer] Dub BD

Ответить на тему
 
Автор Сообщение

user ®

Стаж: 7 лет 7 месяцев

Сообщений: 20008

Пост Пост: #1 от 10-Ноя-2014 00:35

[Цитировать]

Посвященный / The Giver
«Он избран вернуть Судьбу»
-Страна: США / As Is Productions, The Weinstein Company LLC, Tonik Productions, Walden Media
Жанр: фантастика, драма
Год выпуска: 2014
Продолжительность: 01:37:17
Перевод: Профессиональный (дублированный) лицензия BD
Cубтитры: нет
Режиссёр: Филлип Нойс / Phillip Noyce
В ролях: Брентон Туэйтс, Джефф Бриджес, Мэрил Стрип, Одейя Раш, Кэти Холмс, Александр Скарсгард, Камерон Монахэн, Тейлор Свифт, Эмма Трамбле, Александр Джиллингс.
Описание: Юный Джонас живет в идеальном, максимально цивилизованном обществе будущего, где больше нет войн, боли, страданий, радости, воспоминаний. Для каждого члена здесь определен идеальный порядок существования, и теперь никому не приходится выбирать шаг, мысль, цвет — все вокруг однозначно серое… По решению Совета общества Джонас назначается Хранителем памяти, которую он должен перенять у Учителя по имени Дающий. Юноше открывается правда о настоящем мире, но чтобы освободить свой мир, он должен бросить ему вызов…-Рейтинг
imdb.com: 6.60 (31 942)
kinopoisk.ru: 6.736 (18 442)
MPAA: - детям до 13 лет просмотр не желателен-Сэмпл: http://multi-up.com/1012096-Качество видео: BDRip [Посвященный_The.Giver.2014.BDREMUX / kinozal]
Формат видео: AVI
Видео: XviD build 65, 720x304 (2.35:1), 23.976 fps, ~1694 kbps avg, 0.226 bit/pixel
Аудио: 48 kHz, AC3 Dolby Digital, 3/2 (L,C,R,l,r) + LFE ch, ~448 kbps avg (Dub)
-MediaInfo
Общее
Полное имя : D:\The.Giver.2014.US-Transfer.Dub.BDRip.1,46Gb.XviD.AC3.avi
Формат : AVI
Формат/Информация : Audio Video Interleave
Размер файла : 1,46 Гбайт
Продолжительность : 1 ч. 37 м.
Общий поток : 2151 Кбит/сек
Название фильма : The Giver 2014. [US-Transfer]
Режиссёр : Phillip Noyce
Дата записи : 09.11.2014
Программа кодирования : VirtualDubModRus 1.5.10.2 (build 2542/release)
Библиотека кодирования : VirtualDubMod build 2542/release
Правообладатель : ***
Примечание : BDRip by MooN_WalkeR
Видео
Идентификатор : 0
Формат : MPEG-4 Visual
Профиль формата : Advanced Simple@L5
Параметр BVOP формата : 1
Параметр QPel формата : Нет
Параметр GMC формата : Без точки перехода
Параметр матрицы формата : Выборочная
Идентификатор кодека : XVID
Идентификатор кодека/Подсказка : XviD
Продолжительность : 1 ч. 37 м.
Битрейт : 1694 Кбит/сек
Ширина : 720 пикселей
Высота : 304 пикселя
Соотношение сторон : 2,35:1
Частота кадров : 23,976 кадра/сек
Цветовое пространство : YUV
Субдискретизация насыщенности : 4:2:0
Битовая глубина : 8 бит
Тип развёртки : Прогрессивная
Метод сжатия : С потерями
Бит/(Пиксели*Кадры) : 0.323
Размер потока : 1,15 Гбайт (79%)
Библиотека кодирования : XviD 65
Аудио
Идентификатор : 1
Формат : AC-3
Формат/Информация : Audio Coding 3
Расширение режима : CM (complete main)
Параметр Endianness формата : Big
Идентификатор кодека : 2000
Продолжительность : 1 ч. 37 м.
Вид битрейта : Постоянный
Битрейт : 448 Кбит/сек
Каналы : 6 каналов
Расположение каналов : Front: L C R, Side: L R, LFE
Частота : 48,0 КГц
Битовая глубина : 16 бит
Метод сжатия : С потерями
Размер потока : 312 Мбайт (21%)
Выравнивание : Разделение по промежуткам
Продолжительность промежутка : 42 мс. (1,00 видеокадр)
Время предзагрузки промежутка : 500 мс.
Заголовок : Dub
Скриншоты
Скачать

Скачать торрент!

Как скачивать? · Что такое торрент? · Рейтинг и ограничения

Сайт не распространяет и не хранит электронные версии произведений, а лишь предоставляет доступ к создаваемому пользователями каталогу ссылок на торрент-файлы, которые содержат только списки хеш-сумм

[Профиль] [ЛС]
Показать сообщения:    
Ответить на тему

Текущее время: Сегодня 09:00

Часовой пояс: GMT + 4



Вы не можете начинать темы
Вы не можете отвечать на сообщения
Вы не можете редактировать свои сообщения
Вы не можете удалять свои сообщения
Вы не можете голосовать в опросах
Вы не можете прикреплять файлы к сообщениям
Вы не можете скачивать файлы