Посвященный / The Giver (Филлип Нойс / Phillip Noyce) [2014, США, фантастика, драма, BDRip 1080p] [US Transfer] Dub + Sub Eng + Original Eng

Ответить на тему
 
Автор Сообщение

user ®

Стаж: 7 лет 7 месяцев

Сообщений: 20008

Пост Пост: #1 от 09-Ноя-2014 18:15

[Цитировать]

Посвященный / The Giver Страна: США
Студия: As Is Productions, The Weinstein Company LLC, Tonik Productions, Walden Media
Жанр: фантастика, драма
Год выпуска: 2014
Продолжительность: 01:37:17
Перевод: Профессиональный (дублированный) Blu-Ray RUS
Cубтитры: английские (full, SDH)
Оригинальная аудиодорожка: английский
Режиссер: Филлип Нойс / Phillip Noyce
В ролях: Брентон Туэйтс, Мэрил Стрип, Джефф Бриджес, Александр Скарсгард, Кэти Холмс, Тейлор Свифт, Камерон Монахэн, Одейя Раш, Эмма Трамбле, Катарина Дэмм
Описание: Юный Джонас живет в идеальном, максимально цивилизованном обществе будущего, где больше нет войн, боли, страданий, радости, воспоминаний. Для каждого члена здесь определен идеальный порядок существования, и теперь никому не приходится выбирать шаг, мысль, цвет — все вокруг однозначно серое… По решению Совета общества Джонас назначается Хранителем памяти, которую он должен перенять у Учителя по имени Дающий. Юноше открывается правда о настоящем мире, но чтобы освободить свой мир, он должен бросить ему вызов…

Тип релиза: BDRip 1080p[HDAccess]
Контейнер: MKV
Исходник:The.Giver.2014.1080p.BluRay.DTS.x264-HDAccess
Видео: AVC, 1920x804, 10300 bps, 23.976 fps
Аудио 1: Russian: 48 kHz, DTS, 3/2 (L,C,R,l,r) + LFE ch, ~1536.00 kbps avg |Blu-ray Rus|
Аудио 2: English: 48 kHz, DTS, 3/2 (L,C,R,l,r) + LFE ch, ~1536.00 kbps avg |Original|
Чаптеры:есть

x264 log
x264 ...:
frame I:1302 Avg QP:13.86 size:170656
frame P:30901 Avg QP:15.40 size: 86718
frame B:107766 Avg QP:15.62 size: 44478
consecutive B-frames: 2.7% 4.0% 5.9% 26.4% 13.8% 25.8% 7.6% 8.3%
2.4% 0.9% 2.1%
MediaInfo
General
Unique ID : 247450442023514495109139722873388089699 (0xBA2938BB12782E598443725AE23F4163)
Complete name : D:\The.Giver.2014.1080p.BluRay.DTS.x264-Talian-.mkv
Format : Matroska
Format version : Version 2
File size : 9.22 GiB
Duration : 1h 37mn
Overall bit rate : 13.6 Mbps
Movie name : The.Giver-Talian-
Encoded date : UTC 2014-11-08 07:58:32
Writing application : mkvmerge v5.7.0 ('The Whirlwind') built on Jul 8 2012 20:08:51
Writing library : libebml v1.2.3 + libmatroska v1.3.0
Video
ID : 1
Format : AVC
Format/Info : Advanced Video Codec
Format profile : High@L4.1
Format settings, CABAC : Yes
Format settings, ReFrames : 5 frames
Codec ID : V_MPEG4/ISO/AVC
Duration : 1h 37mn
Bit rate : 10.3 Mbps
Width : 1 920 pixels
Height : 804 pixels
Display aspect ratio : 2.40:1
Frame rate : 23.976 fps
Color space : YUV
Chroma subsampling : 4:2:0
Bit depth : 8 bits
Scan type : Progressive
Bits/(Pixel*Frame) : 0.278
Stream size : 6.98 GiB (76%)
Title : HDAccess
Writing library : x264 core 142 r2479kMod dd79a61
Encoding settings : cabac=1 / ref=5 / deblock=1:-3:-3 / analyse=0x3:0x133 / me=umh / subme=10 / psy=1 / fade_compensate=0.00 / psy_rd=0.95:0.00 / mixed_ref=1 / me_range=24 / chroma_me=1 / trellis=2 / 8x8dct=1 / cqm=0 / deadzone=21,11 / fast_pskip=0 / chroma_qp_offset=-2 / threads=18 / lookahead_threads=4 / sliced_threads=0 / nr=0 / decimate=1 / interlaced=0 / bluray_compat=0 / constrained_intra=0 / fgo=0 / bframes=10 / b_pyramid=2 / b_adapt=2 / b_bias=0 / direct=3 / weightb=1 / open_gop=0 / weightp=2 / keyint=230 / keyint_min=23 / scenecut=40 / intra_refresh=0 / rc_lookahead=40 / rc=crf / mbtree=0 / crf=16.8000 / qcomp=0.65 / qpmin=0 / qpmax=69 / qpstep=4 / vbv_maxrate=50000 / vbv_bufsize=62500 / crf_max=0.0 / nal_hrd=none / filler=0 / ip_ratio=1.20 / pb_ratio=1.10 / aq=1:0.85
Language : English
Default : Yes
Forced : No
Matrix coefficients : BT.709-5, BT.1361, IEC 61966-2-4 709, SMPTE RP177
Audio #1
ID : 2
Format : DTS
Format/Info : Digital Theater Systems
Codec ID : A_DTS
Duration : 1h 37mn
Bit rate mode : Constant
Bit rate : 1 510 Kbps
Channel(s) : 6 channels
Channel positions : Front: L C R, Side: L R, LFE
Sampling rate : 48.0 KHz
Bit depth : 24 bits
Compression mode : Lossy
Stream size : 1.03 GiB (11%)
Title : DUB-Blu-Ray RUS
Language : Russian
Default : Yes
Forced : No
Audio #2
ID : 3
Format : DTS
Format/Info : Digital Theater Systems
Codec ID : A_DTS
Duration : 1h 37mn
Bit rate mode : Constant
Bit rate : 1 510 Kbps
Channel(s) : 6 channels
Channel positions : Front: L C R, Side: L R, LFE
Sampling rate : 48.0 KHz
Bit depth : 24 bits
Compression mode : Lossy
Stream size : 1.03 GiB (11%)
Title : Original
Language : English
Default : No
Forced : No
Text #1
ID : 4
Format : UTF-8
Codec ID : S_TEXT/UTF8
Codec ID/Info : UTF-8 Plain Text
Title : Sub-full
Language : English
Default : No
Forced : No
Text #2
ID : 5
Format : UTF-8
Codec ID : S_TEXT/UTF8
Codec ID/Info : UTF-8 Plain Text
Title : Sub-SDH
Language : English
Default : No
Forced : No
Menu
00:00:00.000 : en:00:00:00.000
00:05:51.226 : en:00:05:51.226
00:12:35.505 : en:00:12:35.505
00:20:55.296 : en:00:20:55.296
00:26:11.904 : en:00:26:11.904
00:30:35.250 : en:00:30:35.250
00:36:26.768 : en:00:36:26.768
00:41:24.148 : en:00:41:24.148
00:48:36.539 : en:00:48:36.539
00:56:21.712 : en:00:56:21.712
01:01:04.452 : en:01:01:04.452
01:04:58.645 : en:01:04:58.645
01:09:59.695 : en:01:09:59.695
01:17:07.414 : en:01:17:07.414
01:23:15.866 : en:01:23:15.866
01:28:02.319 : en:01:28:02.319
Скриншоты
Source vs Encode


Скачать

Скачать торрент!

Как скачивать? · Что такое торрент? · Рейтинг и ограничения

Сайт не распространяет и не хранит электронные версии произведений, а лишь предоставляет доступ к создаваемому пользователями каталогу ссылок на торрент-файлы, которые содержат только списки хеш-сумм

[Профиль] [ЛС]

Dizel

Стаж: 2 года

Сообщений: 1

Пост Пост: #2 от 12-Ноя-2014 15:30 (спустя 2 дня 21 час)

[Цитировать]

Спасибо!
[Профиль] [ЛС]
Показать сообщения:    
Ответить на тему

Текущее время: Сегодня 01:16

Часовой пояс: GMT + 4



Вы не можете начинать темы
Вы не можете отвечать на сообщения
Вы не можете редактировать свои сообщения
Вы не можете удалять свои сообщения
Вы не можете голосовать в опросах
Вы не можете прикреплять файлы к сообщениям
Вы не можете скачивать файлы