Город грехов 2: Женщина, ради которой стоит убивать / Sin City: A Dame to Kill For (Роберт Родригес / Robert Rodriguez, Фрэнк Миллер / Frank Miller) [US Transfer] [2014, Россия, США, триллер, криминал, BDRip 1080p] Dub + Sub Eng + Original Eng

Ответить на тему
 
Автор Сообщение

user ®

Стаж: 7 лет 7 месяцев

Сообщений: 20008

Пост Пост: #1 от 09-Ноя-2014 18:15

[Цитировать]

Город грехов 2: Женщина, ради которой стоит убивать / Sin City: A Dame to Kill For Страна: Россия, США
Студия: Aldamisa Entertainment, Demarest Films, Miramax Films, Solipsist Film, Troublemaker Studios
Жанр: триллер, криминал
Год выпуска: 2014
Продолжительность: 01:42:08
Перевод: Профессиональный (дублированный)Blu-Ray RUS
Cубтитры: английские(full,SDH)
Оригинальная аудиодорожка: английский
Режиссер: Роберт Родригес / Robert Rodriguez, Фрэнк Миллер / Frank Miller
В ролях: Ева Грин, Микки Рурк, Джош Бролин, Джессика Альба, Джозеф Гордон-Левитт, Розарио Доусон, Пауэрс Бут, Деннис Хейсбёрт, Джейми Чунг, Брюс Уиллис, Джуно Темпл
Описание: В темных переулках Города Грехов Дуайт планирует жестоко отомстить женщине по имени Ава Лорд, которая его предала, в то время как Нэнси пытается смириться со смертью детектива Хартигана.

Тип релиза: BDRip 1080p[HDAccess]
Контейнер: MKV
Исходник:Sin.City.A.Dame.to.Kill.For.2014.1080p.BluRay.DTS.x264-HDAccess
Видео: AVC, 1920x1040, 9387 bps, 23.976 fps
Аудио 1: Russian: 48 kHz, DTS, 3/2 (L,C,R,l,r) + LFE ch, ~1536.00 kbps avg |Blu-ray Rus|
Аудио 2: English: 48 kHz, DTS, 3/2 (L,C,R,l,r) + LFE ch, ~1536.00 kbps avg |Original|
Чаптеры:есть

x264 log
x264 ...:
frame I:1703 Avg QP:14.48 size:182953
frame P:40273 Avg QP:15.90 size: 76778
frame B:104952 Avg QP:16.95 size: 37913
consecutive B-frames: 4.5% 7.5% 8.3% 49.8% 11.0% 12.4% 2.4% 2.2%
0.6% 0.4% 0.9%
MediaInfo
General
Unique ID : 179605238823340725547833925915281837561 (0x871EB5F47D67CF11BC603472EF29CDF9)
Complete name : D:\рипы\Sin.City.A.Dame.to.Kill.For.2014.1080p.BluRay.DTS.x264-Talian-.mkv
Format : Matroska
Format version : Version 2
File size : 9.03 GiB
Duration : 1h 42mn
Overall bit rate : 12.7 Mbps
Movie name : Sin City: A Dame to Kill For-Talian-
Encoded date : UTC 2014-11-08 09:27:29
Writing application : mkvmerge v5.7.0 ('The Whirlwind') built on Jul 8 2012 20:08:51
Writing library : libebml v1.2.3 + libmatroska v1.3.0
Video
ID : 1
Format : AVC
Format/Info : Advanced Video Codec
Format profile : High@L4.1
Format settings, CABAC : Yes
Format settings, ReFrames : 4 frames
Codec ID : V_MPEG4/ISO/AVC
Duration : 1h 42mn
Bit rate : 9 387 Kbps
Width : 1 920 pixels
Height : 1 040 pixels
Display aspect ratio : 16:9
Frame rate : 23.976 fps
Color space : YUV
Chroma subsampling : 4:2:0
Bit depth : 8 bits
Scan type : Progressive
Bits/(Pixel*Frame) : 0.196
Stream size : 6.70 GiB (74%)
Title : HDAccess
Writing library : x264 core 142 r2479kMod dd79a61
Encoding settings : cabac=1 / ref=4 / deblock=1:-3:-3 / analyse=0x3:0x133 / me=umh / subme=11 / psy=1 / fade_compensate=0.00 / psy_rd=0.95:0.00 / mixed_ref=1 / me_range=48 / chroma_me=1 / trellis=2 / 8x8dct=1 / cqm=0 / deadzone=21,11 / fast_pskip=0 / chroma_qp_offset=-2 / threads=18 / lookahead_threads=4 / sliced_threads=0 / nr=0 / decimate=1 / interlaced=0 / bluray_compat=0 / constrained_intra=0 / fgo=0 / bframes=10 / b_pyramid=2 / b_adapt=2 / b_bias=0 / direct=3 / weightb=1 / open_gop=0 / weightp=2 / keyint=230 / keyint_min=23 / scenecut=40 / intra_refresh=0 / rc_lookahead=40 / rc=crf / mbtree=0 / crf=17.0000 / qcomp=0.75 / qpmin=0 / qpmax=69 / qpstep=4 / vbv_maxrate=50000 / vbv_bufsize=62500 / crf_max=0.0 / nal_hrd=none / filler=0 / ip_ratio=1.20 / pb_ratio=1.10 / aq=1:0.85
Language : English
Default : Yes
Forced : No
Matrix coefficients : BT.709-5, BT.1361, IEC 61966-2-4 709, SMPTE RP177
Audio #1
ID : 2
Format : DTS
Format/Info : Digital Theater Systems
Codec ID : A_DTS
Duration : 1h 42mn
Bit rate mode : Constant
Bit rate : 1 510 Kbps
Channel(s) : 6 channels
Channel positions : Front: L C R, Side: L R, LFE
Sampling rate : 48.0 KHz
Bit depth : 24 bits
Compression mode : Lossy
Stream size : 1.08 GiB (12%)
Title : DUB-Blu-Ray RUS
Language : Russian
Default : Yes
Forced : No
Audio #2
ID : 3
Format : DTS
Format/Info : Digital Theater Systems
Codec ID : A_DTS
Duration : 1h 42mn
Bit rate mode : Constant
Bit rate : 1 510 Kbps
Channel(s) : 6 channels
Channel positions : Front: L C R, Side: L R, LFE
Sampling rate : 48.0 KHz
Bit depth : 24 bits
Compression mode : Lossy
Stream size : 1.08 GiB (12%)
Title : Original
Language : English
Default : No
Forced : No
Text #1
ID : 4
Format : UTF-8
Codec ID : S_TEXT/UTF8
Codec ID/Info : UTF-8 Plain Text
Title : Sub-full
Language : English
Default : No
Forced : No
Text #2
ID : 5
Format : UTF-8
Codec ID : S_TEXT/UTF8
Codec ID/Info : UTF-8 Plain Text
Title : Sub-SDH
Language : English
Default : No
Forced : No
Menu
00:00:00.000 : en:00:00:00.000
00:07:04.966 : en:00:07:04.966
00:14:23.571 : en:00:14:23.571
00:20:40.114 : en:00:20:40.114
00:26:18.911 : en:00:26:18.911
00:31:26.885 : en:00:31:26.885
00:38:13.666 : en:00:38:13.666
00:45:24.639 : en:00:45:24.639
00:50:49.630 : en:00:50:49.630
00:57:46.588 : en:00:57:46.588
01:07:05.980 : en:01:07:05.980
01:12:30.805 : en:01:12:30.805
01:16:48.437 : en:01:16:48.437
01:23:19.828 : en:01:23:19.828
01:28:59.084 : en:01:28:59.084
01:35:22.967 : en:01:35:22.967
Скриншоты
Source vs Encode



Скачать

Скачать торрент!

Как скачивать? · Что такое торрент? · Рейтинг и ограничения

Сайт не распространяет и не хранит электронные версии произведений, а лишь предоставляет доступ к создаваемому пользователями каталогу ссылок на торрент-файлы, которые содержат только списки хеш-сумм

[Профиль] [ЛС]
Показать сообщения:    
Ответить на тему

Текущее время: Сегодня 17:41

Часовой пояс: GMT + 4



Вы не можете начинать темы
Вы не можете отвечать на сообщения
Вы не можете редактировать свои сообщения
Вы не можете удалять свои сообщения
Вы не можете голосовать в опросах
Вы не можете прикреплять файлы к сообщениям
Вы не можете скачивать файлы