Наложница / The Concubine / Hoo-goong: Je-wang-eui cheob (Тэ-сын Ким / Dae-seung Kim) [2012, Южная Корея, драма, мелодрама, HDRip] DVO [Ustas Alexis, Allestra] + original Kor + Sub (rus, eng)

Ответить на тему
 
Автор Сообщение

user ®

Стаж: 13 лет

Сообщений: 15071

Пост Пост: #1 от 09-Ноя-2014 04:00

[Цитировать]

Наложница / The Concubine / Hoo-goong: Je-wang-eui cheob- -Страна: Южная Корея
Жанр: драма, мелодрама
Год выпуска: 2012
Продолжительность: 02:02:16-Перевод: Любительский (двухголосый закадровый) [Ustas Alexis, Allestra]-Cубтитры: русские [ASS], английские [SRT] - отдельно
Оригинальная аудиодорожка: корейский
Режиссер: Тэ-сын Ким / Dae-seung Kim
В ролях: Чо Ё Чжон, Дон-ук Ким, Ким Мин Чжун, Чи-Юнг Парк, Чо Ын Джи
Описание: Однажды сводный брат короля, принц Сон Вон, встречает красивую девушку Хва Ён — дочь знатного человека. Он влюбляется в неё без памяти. Однако у той уже есть возлюбленный. Матери Сон Вона не нравится увлечение сына, поэтому она решает устранить девушку, отдав её в жёны своему пасынку-королю. Хва Ён жертвует собой, согласившись стать женой короля. Теперь ей придётся жить во дворце, где интриги являются неотъемлемой частью власти, а борьба за существование становится важнее любви и чести.
Релиз от -
Сэмпл: http://multi-up.com/1011712
Качество видео: HDRip
Формат видео: AVI
Видео: MPEG-4 Visual at 2389 Кбит/сек; 704 x 384 (1.833) at 23.976 fps
Аудио: AC-3 at 448 Кбит/сек; 6 каналов, 48,0 КГц [DVO]
Аудио: AC-3 at 448 Кбит/сек; 6 каналов, 48,0 КГц [Kor]
Автор -
MediaInfo
Общее
Полное имя : D:\Фильмы\Азиатские\Наложница\The Concubine.2012.HDRip.XviD.2900MB. rip by [Assassin's Creed]\The Concubine.2012.HDRip.XviD.2900MB. rip by [Assassin's Creed].avi
Формат : AVI
Формат/Информация : Audio Video Interleave
Профиль формата : OpenDML
Размер файла : 2,82 Гбайт
Продолжительность : 2 ч. 2 м.
Общий поток : 3301 Кбит/сек
Программа кодирования : VirtualDubMod 1.5.10.2 (build 2540/release)
Библиотека кодирования : VirtualDubMod build 2540/release
Видео
Идентификатор : 0
Формат : MPEG-4 Visual
Профиль формата : Advanced Simple@L5
Параметр BVOP формата : 1
Параметр QPel формата : Нет
Параметр GMC формата : Без точки перехода
Параметр матрицы формата : Default (MPEG)
Идентификатор кодека : XVID
Идентификатор кодека/Подсказка : XviD
Продолжительность : 2 ч. 2 м.
Битрейт : 2389 Кбит/сек
Ширина : 704 пикселя
Высота : 384 пикселя
Соотношение сторон : 1,85:1
Частота кадров : 23,976 кадра/сек
Цветовое пространство : YUV
Субдискретизация насыщенности : 4:2:0
Битовая глубина : 8 бит
Тип развёртки : Прогрессивная
Метод сжатия : С потерями
Бит/(Пиксели*Кадры) : 0.369
Размер потока : 2,04 Гбайт (72%)
Библиотека кодирования : XviD 1.2.1 (UTC 2008-12-04)
Аудио #1
Идентификатор : 1
Формат : AC-3
Формат/Информация : Audio Coding 3
Расширение режима : CM (complete main)
Параметр Endianness формата : Big
Идентификатор кодека : 2000
Продолжительность : 2 ч. 2 м.
Вид битрейта : Постоянный
Битрейт : 448 Кбит/сек
Каналы : 6 каналов
Расположение каналов : Front: L C R, Side: L R, LFE
Частота : 48,0 КГц
Битовая глубина : 16 бит
Метод сжатия : С потерями
Размер потока : 392 Мбайт (14%)
Выравнивание : Разделение по промежуткам
Продолжительность промежутка : 42 мс. (1,00 видеокадр)
Время предзагрузки промежутка : 500 мс.
Аудио #2
Идентификатор : 2
Формат : AC-3
Формат/Информация : Audio Coding 3
Расширение режима : CM (complete main)
Параметр Endianness формата : Big
Идентификатор кодека : 2000
Продолжительность : 2 ч. 2 м.
Вид битрейта : Постоянный
Битрейт : 448 Кбит/сек
Каналы : 6 каналов
Расположение каналов : Front: L C R, Side: L R, LFE
Частота : 48,0 КГц
Битовая глубина : 16 бит
Метод сжатия : С потерями
Размер потока : 392 Мбайт (14%)
Выравнивание : Разделение по промежуткам
Продолжительность промежутка : 42 мс. (1,00 видеокадр)
Время предзагрузки промежутка : 500 мс.
Общее
Полное имя : D:\Фильмы\Азиатские\Наложница\The Concubine.2012.HDRip.XviD.2900MB. rip by [Assassin's Creed]\The Concubine.2012.HDRip.XviD.2900MB. rip by [Assassin's Creed].eng.srt
Формат : SubRip
Размер файла : 70,8 Кбайт
Текст
Формат : SubRip
Метод сжатия : Без потерь
Общее
Полное имя : D:\Фильмы\Азиатские\Наложница\The Concubine.2012.HDRip.XviD.2900MB. rip by [Assassin's Creed]\The Concubine.2012.HDRip.XviD.2900MB. rip by [Assassin's Creed].rus.ass
Размер файла : 117 Кбайт
Скриншот c названием фильма Скриншоты
Скачать

Скачать торрент! Наложница / The Concubine / Hoo-goong: Je-wang-eui cheob (Тэ-сын Ким / Dae-seung Kim) [2012, Южная Корея, драма, мелодрама, HDRip] DVO [Ustas Alexis, Allestra] + original Kor + Sub (rus, eng)

Как скачивать? · Что такое торрент? · Рейтинг и ограничения

Сайт не распространяет и не хранит электронные версии произведений, а лишь предоставляет доступ к создаваемому пользователями каталогу ссылок на торрент-файлы, которые содержат только списки хеш-сумм

[Профиль] [ЛС]
Показать сообщения:    
Ответить на тему

Текущее время: Сегодня 18:07

Часовой пояс: GMT + 4



Вы не можете начинать темы
Вы не можете отвечать на сообщения
Вы не можете редактировать свои сообщения
Вы не можете удалять свои сообщения
Вы не можете голосовать в опросах
Вы не можете прикреплять файлы к сообщениям
Вы не можете скачивать файлы