Я – вратарь / Der Goalie bin ig (Сабина Босс / Sabine Boss) [2014, Швейцария, драма, мелодрама, HDRip] VO (Е. Гаевский)

Ответить на тему
 
Автор Сообщение

user ®

Стаж: 7 лет 7 месяцев

Сообщений: 20008

Пост Пост: #1 от 09-Ноя-2014 04:00

[Цитировать]

Я – вратарь / Der Goalie bin ig
Страна: Швейцария
Жанр: драма, мелодрама
Год выпуска: 2014
Продолжительность: 01:32:55
Перевод: Одноголосый закадровый Е. Гаевский по переводу kon2011
Cубтитры: нет
Оригинальная аудиодорожка: нет
Режиссер: Сабина Босс / Sabine Boss
В ролях: Михаэль Нойеншвандер, Соня Рисен, Маркус Сигнер, Паскаль Улли
Описание: Голи был только что выпущен из тюрьмы, где он провел год за то, что не сдал своего лучшего друга Ули. Выйдя на свободу Голи хочет начать новую жизнь, но ему придется столкнуться лицом к лицу со своим прошлым…
Доп. информация:

Сэмпл: http://multi-up.com/1011753
Качество видео: HDRip
Формат видео: AVI
Видео: 720x304 (2.37:1), 23.976 fps, XviD build 50 ~1689 kbps avg, 0.32 bit/pixel
Аудио: 48 kHz, AC3 Dolby Digital, 3/2 (L,C,R,l,r) + LFE ch, ~448 kbps
MediaInfo
General
Complete name : C:\Users\Вика\Desktop\Der Gоаliе bin ig.2014.HDRip.avi
Format : AVI
Format/Info : Audio Video Interleave
File size : 1.39 GiB
Duration : 1h 32mn
Overall bit rate : 2 147 Kbps
Writing application : VirtualDubMod 1.5.10.3 | www.virtualdub-fr.org || (build 2550/release)
Writing library : VirtualDubMod build 2550/release
Video
ID : 0
Format : MPEG-4 Visual
Format profile : Advanced Simple@L5
Format settings, BVOP : Yes
Format settings, QPel : No
Format settings, GMC : No warppoints
Format settings, Matrix : Default (H.263)
Codec ID : XVID
Codec ID/Hint : XviD
Duration : 1h 32mn
Bit rate : 1 689 Kbps
Width : 720 pixels
Height : 304 pixels
Display aspect ratio : 2.35:1
Frame rate : 23.976 fps
Color space : YUV
Chroma subsampling : 4:2:0
Bit depth : 8 bits
Scan type : Progressive
Compression mode : Lossy
Bits/(Pixel*Frame) : 0.322
Stream size : 1.10 GiB (79%)
Writing library : XviD 1.2.1 (UTC 2008-12-04)
Audio
ID : 1
Format : AC-3
Format/Info : Audio Coding 3
Mode extension : CM (complete main)
Format settings, Endianness : Big
Codec ID : 2000
Duration : 1h 32mn
Bit rate mode : Constant
Bit rate : 448 Kbps
Channel count : 6 channels
Channel positions : Front: L C R, Side: L R, LFE
Sampling rate : 48.0 KHz
Bit depth : 16 bits
Compression mode : Lossy
Stream size : 298 MiB (21%)
Alignment : Split accross interleaves
Interleave, duration : 42 ms (1.00 video frame)
Interleave, preload duration : 500 ms
Скриншоты
Скачать

Скачать торрент!

Как скачивать? · Что такое торрент? · Рейтинг и ограничения

Сайт не распространяет и не хранит электронные версии произведений, а лишь предоставляет доступ к создаваемому пользователями каталогу ссылок на торрент-файлы, которые содержат только списки хеш-сумм

[Профиль] [ЛС]
Показать сообщения:    
Ответить на тему

Текущее время: Сегодня 19:41

Часовой пояс: GMT + 4



Вы не можете начинать темы
Вы не можете отвечать на сообщения
Вы не можете редактировать свои сообщения
Вы не можете удалять свои сообщения
Вы не можете голосовать в опросах
Вы не можете прикреплять файлы к сообщениям
Вы не можете скачивать файлы