Два дня, одна ночь / Deux jours, une nuit (Жан-Пьер Дарденн / Jean-Pierre Dardenne, Люк Дарденн / Luc Dardenne) [2014, Бельгия, Франция, Италия, драма, HDRip-AVC] MVO + Sub (rus, eng)

Ответить на тему
 
Автор Сообщение

user ®

Стаж: 7 лет 7 месяцев

Сообщений: 20008

Пост Пост: #1 от 09-Ноя-2014 04:00

[Цитировать]

Два дня, одна ночь
Deux jours, une nuit


Страна: Бельгия, Франция, Италия
Жанр: драма
Год выпуска: 2014
Продолжительность: 01:35:08
Перевод: Профессиональный (многоголосый закадровый) [Лицензия]
Cубтитры: русские, английские
Оригинальная аудиодорожка: нет
Режиссер:
Жан-Пьер Дарденн / Jean-Pierre Dardenne, Люк Дарденн / Luc Dardenne
В ролях:
Марион Котийяр, Фабрицио Ронджоне, Катрин Сале, Батисте Сорнен, Пили Груан, Саймон Кодри, Лара Персейн, Ален Элуа, Мириам Акеддиу, Фабьен Шаша
Описание:
Судьба Сандры зависит от решения нескольких человек, вынужденных выбирать между ней и деньгами. Пытаясь склонить людей на свою сторону, она ищет в их сердцах то, что они, кажется, давно потеряли.

Релиз:
Автор рипа: Stalker oK
Сэмпл: multi-up
Качество видео: HDRip-AVC [BDRip 1080p]
Формат видео: MKV
Видео кодек: AVC
Аудио кодек: AC3
Видео: 1752 Кбит/сек, 1024*552 (1,855), в 23,976 кадр/сек, AVC
Аудио: Russian, 448 Кбит/сек, 48,0 КГц, 16 бит, 6 канала(ов), AC-3

MediaInfo
Общее
Уникальный идентификатор : 206269673793823982896964919141550050012 (0x9B2E18196B1085A789A2487623D0CADC)
Полное имя : L:\TEMP\Два дня, одна ночь\Dva.dnja.odna.noch'.2014.HDRip-AVC.MVO.1.45Gb...stalkerok.new-team.mkv
Формат : Matroska
Размер файла : 1,46 Гбайт
Продолжительность : 1 ч. 35 м.
Общий поток : 2201 Кбит/сек
Название фильма : Deux jours, une nuit, 2014 (New-Team) (Rip by Stalker oK)
Дата кодирования : UTC 2014-11-08 19:05:08
Программа кодирования : mkvmerge v6.1.0 ('Old Devil') built on Mar 4 2013 09:10:42
Библиотека кодирования : libebml v1.3.0 + libmatroska v1.4.0
Видео
Идентификатор : 1
Формат : AVC
Формат/Информация : Advanced Video Codec
Профиль формата : High@L4.1
Параметр CABAC формата : Да
Параметр ReFrames формата : 11 кадры
Параметры GOP формата : M=14, N=23
Идентификатор кодека : V_MPEG4/ISO/AVC
Продолжительность : 1 ч. 35 м.
Битрейт : 1752 Кбит/сек
Ширина : 1024 пикс.
Высота : 552 пикс.
Соотношение сторон : 1,855
Частота кадров : 23,976 кадр/сек
Цветовое пространство : YUV
Подвыборка цветности : 4:2:0
Битовая глубина : 8 бит
Тип развёртки : Прогрессивная
Бит/(Пиксели*Кадры) : 0.129
Размер потока : 1,14 Гбайт (78%)
Библиотека кодирования : x264 core 142 r2431 ac76440
Настройки программы : cabac=1 / ref=11 / deblock=1:-3:-3 / analyse=0x3:0x133 / me=umh / subme=11 / psy=1 / psy_rd=1.00:0.10 / mixed_ref=1 / me_range=48 / chroma_me=1 / trellis=2 / 8x8dct=1 / cqm=0 / deadzone=21,11 / fast_pskip=0 / chroma_qp_offset=-3 / threads=12 / lookahead_threads=3 / sliced_threads=0 / nr=0 / decimate=0 / interlaced=0 / bluray_compat=0 / constrained_intra=0 / bframes=13 / b_pyramid=2 / b_adapt=2 / b_bias=0 / direct=3 / weightb=1 / open_gop=0 / weightp=2 / keyint=240 / keyint_min=23 / scenecut=40 / intra_refresh=0 / rc_lookahead=60 / rc=2pass / mbtree=0 / bitrate=1752 / ratetol=1.0 / qcomp=0.70 / qpmin=0 / qpmax=69 / qpstep=4 / cplxblur=20.0 / qblur=0.5 / vbv_maxrate=20000 / vbv_bufsize=25000 / nal_hrd=none / filler=0 / ip_ratio=1.25 / pb_ratio=1.15 / aq=2:0.90
Язык : English
Аудио
Идентификатор : 2
Формат : AC-3
Формат/Информация : Audio Coding 3
Расширение режима : CM (complete main)
Идентификатор кодека : A_AC3
Продолжительность : 1 ч. 35 м.
Вид битрейта : Постоянный
Битрейт : 448 Кбит/сек
Канал(ы) : 6 канала(ов)
Расположение каналов : Front: L C R, Side: L R, LFE
Частота : 48,0 КГц
Битовая глубина : 16 бит
Метод сжатия : С потерями
Размер потока : 305 Мбайт (20%)
Заголовок : Лицензия
Язык : Russian
Текст #1
Идентификатор : 3
Формат : UTF-8
Идентификатор кодека : S_TEXT/UTF8
Идентификатор кодека/Информация : UTF-8 Plain Text
Язык : Russian
Текст #2
Идентификатор : 4
Формат : UTF-8
Идентификатор кодека : S_TEXT/UTF8
Идентификатор кодека/Информация : UTF-8 Plain Text
Язык : English
Меню
00:00:00.000 : en:00:00:00.000
00:06:12.706 : en:00:06:12.706
00:17:49.360 : en:00:17:49.360
00:21:06.348 : en:00:21:06.348
00:28:06.894 : en:00:28:06.894
00:35:57.781 : en:00:35:57.781
00:42:43.519 : en:00:42:43.519
00:51:24.039 : en:00:51:24.039
01:14:19.955 : en:01:14:19.955
01:18:23.198 : en:01:18:23.198
01:22:12.845 : en:01:22:12.845
01:25:22.534 : en:01:25:22.534
Скриншоты
Скачать

Скачать торрент!

Как скачивать? · Что такое торрент? · Рейтинг и ограничения

Сайт не распространяет и не хранит электронные версии произведений, а лишь предоставляет доступ к создаваемому пользователями каталогу ссылок на торрент-файлы, которые содержат только списки хеш-сумм

[Профиль] [ЛС]
Показать сообщения:    
Ответить на тему

Текущее время: Сегодня 22:19

Часовой пояс: GMT + 4



Вы не можете начинать темы
Вы не можете отвечать на сообщения
Вы не можете редактировать свои сообщения
Вы не можете удалять свои сообщения
Вы не можете голосовать в опросах
Вы не можете прикреплять файлы к сообщениям
Вы не можете скачивать файлы