Джек-попрыгунчик / Jumpin\' Jack Flash (Пенни Маршалл / Penny Marshall) [1986, США, триллер, мелодрама, комедия, BDRip 720p] MVO (R5) + AVO (Михалев) + Ukr (1+1) + Original Eng + subs (Rus, Eng, Ukr)

Ответить на тему
 
Автор Сообщение

user ®

Стаж: 7 лет 7 месяцев

Сообщений: 20008

Пост Пост: #1 от 08-Ноя-2014 15:30

[Цитировать]

Джек-попрыгунчик / Jumpin' Jack Flash- Год выпуска: 1986
Выпущено: США
Жанр: триллер, мелодрама, комедия
Продолжительность: 01:45:17
Перевод: Профессиональный (многоголосый, закадровый) R5
+ Авторский одноголосый А.Михалев
Оригинальная звуковая дорожка: English
Cубтитры: Russian, Ukrainian, English-Режиссер: Пенни Маршалл / Penny Marshall
В ролях: Вупи Голдберг, Стивен Коллинз, Джон Вуд, Кэрол Кейн, Энни Поттс, Питер Майкл Гец, Роско Ли Браун, Сара Ботсфорд, Ерун Краббе, Вито Руджинис
О фильме: Терри работает программисткой в банке. Эта скучная нудная работа абсолютно не подходит темпераменту веселой чернокожей матершиннице.
Но все меняется, когда она получает таинственное закодированное послание. Расшифровав письмо, Терри оказывается с головой втянута в запутанную и очень опасную шпионскую игру.-Релиз:
Формат: MKV
Видео: 1280x694 at 23.976 fps, x264@L4.1, crf, ~9280 kbps avg
Аудио #01: Russian: 48 kHz, DTS, 3/2 (L,C,R,l,r) + LFE ch, ~1509.00 kbps avg |Многоголосый закадровый, R5|
Аудио #02: Russian: 48 kHz, DTS, 3/2 (L,C,R,l,r) + LFE ch, ~1509.00 kbps avg |Одноголосый закадровый, А.Михалев|
Аудио #03: Russian: 48 kHz, AC3, 3/2 (L,C,R,l,r) + LFE ch, ~448.00 kbps avg |Многоголосый закадровый, R5|
Аудио #04: Ukrainian: 48 kHz, AC3, 2/0 (L,R) ch, ~192.00 kbps avg |Многоголосый закадровый, 1+1|
Аудио #05: English: 48 kHz, DTS, 3/2 (L,C,R,l,r) + LFE ch, ~1509.00 kbps avg
Семпл-

Скриншоты
-
mInfo
Формат : Matroska
Версия формата : Version 2
Размер файла : 10,6 Гбайт
Продолжительность : 1 ч. 45 м.
Общий поток : 14,5 Мбит/сек
Дата кодирования : UTC 2014-11-03 10:16:36
Программа кодирования : mkvmerge v5.8.0 ('No Sleep / Pillow') built on Sep 2 2012 15:37:04
Библиотека кодирования : libebml v1.2.3 + libmatroska v1.3.0
Видео
Идентификатор : 1
Формат : AVC
Формат/Информация : Advanced Video Codec
Профиль формата : High@L4.1
Параметр CABAC формата : Да
Параметр ReFrames формата : 8 кадров
Идентификатор кодека : V_MPEG4/ISO/AVC
Продолжительность : 1 ч. 45 м.
Битрейт : 9000 Кбит/сек
Ширина : 1280 пикс.
Высота : 694 пикс.
Соотношение сторон : 16:9
Частота кадров : 23,976 кадр/сек
Цветовое пространство : YUV
Подвыборка цветности : 4:2:0
Битовая глубина : 8 бит
Тип развёртки : Прогрессивная
Бит/(Пиксели*Кадры) : 0.423
Размер потока : 6,62 Гбайт (62%)
Заголовок : Джек-попрыгунчик / Jumpin' Jack Flash (1986) - Release for HDClub
Библиотека кодирования : x264 core 142 r2479 dd79a61
Настройки программы : cabac=1 / ref=8 / deblock=1:-3:-3 / analyse=0x3:0x113 / me=umh / subme=11 / psy=1 / psy_rd=1.10:0.00 / mixed_ref=1 / me_range=32 / chroma_me=1 / trellis=2 / 8x8dct=1 / cqm=0 / deadzone=21,11 / fast_pskip=0 / chroma_qp_offset=-2 / threads=6 / lookahead_threads=1 / sliced_threads=0 / nr=0 / decimate=1 / interlaced=0 / bluray_compat=0 / constrained_intra=0 / bframes=8 / b_pyramid=2 / b_adapt=2 / b_bias=0 / direct=3 / weightb=1 / open_gop=0 / weightp=2 / keyint=240 / keyint_min=23 / scenecut=40 / intra_refresh=0 / rc_lookahead=40 / rc=crf / mbtree=0 / crf=17.5 / qcomp=0.70 / qpmin=0 / qpmax=69 / qpstep=4 / vbv_maxrate=50000 / vbv_bufsize=62500 / crf_max=0.0 / nal_hrd=none / filler=0 / ip_ratio=1.40 / pb_ratio=1.30 / aq=2:0.70
Язык : English
Default : Да
Forced : Нет
Аудио #1
Идентификатор : 2
Формат : DTS
Формат/Информация : Digital Theater Systems
Идентификатор кодека : A_DTS
Продолжительность : 1 ч. 45 м.
Вид битрейта : Постоянный
Битрейт : 1510 Кбит/сек
Каналы : 6 каналов
Расположение каналов : Front: L C R, Side: L R, LFE
Частота : 48,0 КГц
Битовая глубина : 16 бит
Метод сжатия : С потерями
Размер потока : 1,11 Гбайт (10%)
Заголовок : Многоголосый закадровый, R5, DTS 1509 Kbps 5/1
Язык : Russian
Default : Да
Forced : Нет
Аудио #2
Идентификатор : 3
Формат : DTS
Формат/Информация : Digital Theater Systems
Идентификатор кодека : A_DTS
Продолжительность : 1 ч. 45 м.
Вид битрейта : Постоянный
Битрейт : 1510 Кбит/сек
Каналы : 6 каналов
Расположение каналов : Front: L C R, Side: L R, LFE
Частота : 48,0 КГц
Битовая глубина : 16 бит
Метод сжатия : С потерями
Размер потока : 1,11 Гбайт (10%)
Заголовок : Одноголосый закадровый, А.Михалев, DTS 1509 Kbps 5/1
Язык : Russian
Default : Нет
Forced : Нет
Аудио #3
Идентификатор : 4
Формат : AC-3
Формат/Информация : Audio Coding 3
Расширение режима : CM (complete main)
Идентификатор кодека : A_AC3
Продолжительность : 1 ч. 45 м.
Вид битрейта : Постоянный
Битрейт : 448 Кбит/сек
Каналы : 6 каналов
Расположение каналов : Front: L C R, Side: L R, LFE
Частота : 48,0 КГц
Битовая глубина : 16 бит
Метод сжатия : С потерями
Размер потока : 337 Мбайт (3%)
Заголовок : Многоголосый закадровый, R5, AC-3 448 Kbps 5/1
Язык : Russian
Default : Нет
Forced : Нет
Аудио #4
Идентификатор : 5
Формат : AC-3
Формат/Информация : Audio Coding 3
Расширение режима : CM (complete main)
Идентификатор кодека : A_AC3
Продолжительность : 1 ч. 45 м.
Вид битрейта : Постоянный
Битрейт : 192 Кбит/сек
Каналы : 2 канала
Расположение каналов : Front: L R
Частота : 48,0 КГц
Битовая глубина : 16 бит
Метод сжатия : С потерями
Размер потока : 145 Мбайт (1%)
Заголовок : Многоголосый закадровый, 1+1, AC-3 192 Kbps 2/0
Язык : Ukrainian
Default : Нет
Forced : Нет
Аудио #5
Идентификатор : 6
Формат : DTS
Формат/Информация : Digital Theater Systems
Идентификатор кодека : A_DTS
Продолжительность : 1 ч. 45 м.
Вид битрейта : Постоянный
Битрейт : 1510 Кбит/сек
Каналы : 6 каналов
Расположение каналов : Front: L C R, Side: L R, LFE
Частота : 48,0 КГц
Битовая глубина : 16 бит
Метод сжатия : С потерями
Размер потока : 1,11 Гбайт (10%)
Заголовок : Оригинал, DTS 1509 Kbps 5/1
Язык : English
Default : Нет
Forced : Нет
Текст #1
Идентификатор : 7
Формат : UTF-8
Идентификатор кодека : S_TEXT/UTF8
Идентификатор кодека/Информация : UTF-8 Plain Text
Заголовок : Субтитры
Язык : Russian
Default : Нет
Forced : Нет
Текст #2
Идентификатор : 8
Формат : UTF-8
Идентификатор кодека : S_TEXT/UTF8
Идентификатор кодека/Информация : UTF-8 Plain Text
Заголовок : Субтитры
Язык : Ukrainian
Default : Нет
Forced : Нет
Текст #3
Идентификатор : 9
Формат : UTF-8
Идентификатор кодека : S_TEXT/UTF8
Идентификатор кодека/Информация : UTF-8 Plain Text
Заголовок : Субтитры
Язык : English
Default : Нет
Forced : Нет
Меню
00:00:00.000 : en:Chapter 01
00:11:04.413 : en:Chapter 02
00:20:34.357 : en:Chapter 03
00:31:20.377 : en:Chapter 04
00:40:56.202 : en:Chapter 05
00:50:41.704 : en:Chapter 06
01:00:01.514 : en:Chapter 07
01:10:11.207 : en:Chapter 08
01:21:31.136 : en:Chapter 09
01:32:37.009 : en:Chapter 10

-
x264 log
raw [info]: 1280x694p 1:1 @ 24000/1001 fps (cfr)
x264 [info]: using SAR=1/1
x264 [info]: using cpu capabilities: MMX2 SSE2Fast SSSE3 SSE4.2 AVX
x264 [info]: profile High, level 4.1
x264 [info]: frame I:1133 Avg QP:16.82 size:113527
x264 [info]: frame P:27399 Avg QP:17.94 size: 70543
x264 [info]: frame B:122931 Avg QP:20.21 size: 42863
x264 [info]: consecutive B-frames: 1.1% 0.7% 2.3% 10.4% 15.7% 49.2% 9.8% 5.4% 5.3%
x264 [info]: mb I I16..4: 1.6% 90.8% 7.7%
x264 [info]: mb P I16..4: 0.4% 25.4% 1.0% P16..4: 24.2% 34.1% 13.9% 0.0% 0.0% skip: 1.0%
x264 [info]: mb B I16..4: 0.0% 5.1% 0.1% B16..8: 41.4% 27.5% 7.3% direct:11.5% skip: 7.0% L0:47.9% L1:39.9% BI:12.2%
x264 [info]: 8x8 transform intra:95.5% inter:62.2%
x264 [info]: direct mvs spatial:100.0% temporal:0.0%
x264 [info]: coded y,uvDC,uvAC intra: 97.2% 83.8% 42.0% inter: 72.2% 48.8% 2.3%
x264 [info]: i16 v,h,dc,p: 23% 54% 5% 18%
x264 [info]: i8 v,h,dc,ddl,ddr,vr,hd,vl,hu: 10% 6% 7% 11% 15% 14% 12% 12% 12%
x264 [info]: i4 v,h,dc,ddl,ddr,vr,hd,vl,hu: 17% 8% 3% 9% 15% 15% 12% 11% 10%
x264 [info]: i8c dc,h,v,p: 40% 24% 20% 15%
x264 [info]: Weighted P-Frames: Y:6.9% UV:2.7%
x264 [info]: ref P L0: 35.8% 9.6% 19.1% 10.4% 8.3% 6.8% 5.7% 4.0% 0.3% 0.0%
x264 [info]: ref B L0: 59.1% 16.6% 10.5% 6.0% 4.7% 2.4% 0.8%
x264 [info]: ref B L1: 87.2% 12.8%
x264 [info]: kb/s:9283.34
encoded 151463 frames, 2.58 fps, 9283.34 kb/s

-
Цитата:
* Сохранены оригинальные чаптеры как на Blu-ray.
* За работу над звуковыми дорогами большое спасибо Прагматик и stasjan.
* За украинскую дорогу большое спасибо 4erkov@hurtom.
-
Скачать

Скачать торрент!

Как скачивать? · Что такое торрент? · Рейтинг и ограничения

Сайт не распространяет и не хранит электронные версии произведений, а лишь предоставляет доступ к создаваемому пользователями каталогу ссылок на торрент-файлы, которые содержат только списки хеш-сумм

[Профиль] [ЛС]
Показать сообщения:    
Ответить на тему

Текущее время: Сегодня 12:32

Часовой пояс: GMT + 4



Вы не можете начинать темы
Вы не можете отвечать на сообщения
Вы не можете редактировать свои сообщения
Вы не можете удалять свои сообщения
Вы не можете голосовать в опросах
Вы не можете прикреплять файлы к сообщениям
Вы не можете скачивать файлы