Планета обезьян: Революция / Dawn of the Planet of the Apes (Мэтт Ривз / Matt Reeves) [2014, США, фантастика, боевик, триллер, WEB-DL 720p] Dub (Rus, Ukr) + Sub (Eng) + Original (Eng)

Ответить на тему
 
Автор Сообщение

user ®

Стаж: 7 лет 7 месяцев

Сообщений: 20008

Пост Пост: #1 от 08-Ноя-2014 15:30

[Цитировать]

Планета обезьян: Революция / Dawn of the Planet of the Apes
Страна: США
Студия: Chernin Entertainment, Ingenious Media, TSG Entertainment
Жанр: фантастика, боевик, триллер
Год выпуска: 2014
Продолжительность: 02:10:42
Перевод: Профессиональный (дублированный, Rus, Ukr) | Blu-ray 3D EUR
Cубтитры: английские (iTunes)
Оригинальная аудиодорожка: английский
Режиссер: Мэтт Ривз / Matt Reeves
В ролях: Энди Серкис, Джейсон Кларк, Гари Олдман, Кери Рассел, Тоби Кеббелл, Коди Смит-МакФи, Кирк Асеведо, Ник Тёрстон, Терри Нотари, Карин Коновал
Описание: Численность генетически модифицированных обезьян, возглавляемых Цезарем, продолжает увеличиваться, но обезьянам угрожают люди, которым удалось выжить во время ужасной эпидемии десятилетней давности. Поначалу между соперниками устанавливается хрупкий мир, но он оказывается недолговечным. Обезьяны и люди находятся на грани войны, в ходе которой станет понятно, кто из них в будущем станет безраздельно править планетой.
Релиз: by Dreamcatcher
Сэмпл: http://multi-up.com/1011584
Тип релиза: WEB-DL 720p
Контейнер: MKV
Видео: 1280x690 at 23.976 fps, MPEG-4 AVC, ~4000 kbps avg
Аудио 1: Russian: 48 kHz, DTS, 3/2 (L,C,R,l,r) + LFE ch, ~768.00 kbps avg |Дубляж, Blu-ray 3D EUR|
Аудио 2: Ukrainian: 48 kHz, AC3, 3/2 (L,C,R,l,r) + LFE ch, ~448.00 kbps avg |Дубляж, Blu-ray 3D EUR|
Аудио 3: English: 48 kHz, AC3, 3/2 (L,C,R,l,r) + LFE ch, ~384.00 kbps avg |iTunes US|
Главы: есть

MediaInfo
General
Unique ID : 177528694591084308273594746783878700636 (0x858EC86B7C387D32A4CDE0FFC6895E5C)
Complete name : D:\Видео\Movies\Dawn.Of.The.Planet.of.The.Apes.2014.720p.WEB-DL.Rus.Ukr.Eng.HDCLUB.mkv
Format : Matroska
Format version : Version 2
File size : 5.30 GiB
Duration : 2h 10mn
Overall bit rate : 5 809 Kbps
Movie name : Dawn of the Planet of the Apes (2014) - Release for HDCLUB
Encoded date : UTC 2014-11-03 19:15:03
Writing application : mkvmerge v3.4.0 ('Rapunzel') built on May 15 2010 09:38:20
Writing library : libebml v0.8.0 + libmatroska v0.9.0
Video
ID : 1
Format : AVC
Format/Info : Advanced Video Codec
Format profile : High@L3.1
Format settings, CABAC : No
Format settings, ReFrames : 2 frames
Codec ID : V_MPEG4/ISO/AVC
Duration : 2h 10mn
Bit rate : 4 093 Kbps
Width : 1 280 pixels
Height : 690 pixels
Display aspect ratio : 1.85:1
Frame rate mode : Constant
Frame rate : 23.976 fps
Color space : YUV
Chroma subsampling : 4:2:0
Bit depth : 8 bits
Scan type : Progressive
Bits/(Pixel*Frame) : 0.193
Stream size : 3.74 GiB (70%)
Title : Dawn of the Planet of the Apes (2014) - Release for HDCLUB
Language : English
Default : Yes
Forced : No
Color primaries : BT.709
Transfer characteristics : BT.709
Matrix coefficients : BT.709
Audio #1
ID : 2
Format : DTS
Format/Info : Digital Theater Systems
Mode : 16
Format settings, Endianness : Big
Codec ID : A_DTS
Duration : 2h 10mn
Bit rate mode : Constant
Bit rate : 768 Kbps
Channel count : 6 channels
Channel positions : Front: L C R, Side: L R, LFE
Sampling rate : 48.0 KHz
Bit depth : 24 bits
Compression mode : Lossy
Stream size : 718 MiB (13%)
Title : DTS 5.1 @ 768 kbps - DUB, Blu-ray 3D EUR
Language : Russian
Default : Yes
Forced : No
Audio #2
ID : 3
Format : AC-3
Format/Info : Audio Coding 3
Mode extension : CM (complete main)
Format settings, Endianness : Big
Codec ID : A_AC3
Duration : 2h 10mn
Bit rate mode : Constant
Bit rate : 448 Kbps
Channel count : 6 channels
Channel positions : Front: L C R, Side: L R, LFE
Sampling rate : 48.0 KHz
Bit depth : 16 bits
Compression mode : Lossy
Stream size : 419 MiB (8%)
Title : AC3 5.1 @ 448 kbps - DUB, Blu-ray 3D EUR
Language : Ukrainian
Default : No
Forced : No
Audio #3
ID : 4
Format : AC-3
Format/Info : Audio Coding 3
Mode extension : CM (complete main)
Format settings, Endianness : Big
Codec ID : A_AC3
Duration : 2h 10mn
Bit rate mode : Constant
Bit rate : 384 Kbps
Channel count : 6 channels
Channel positions : Front: L C R, Side: L R, LFE
Sampling rate : 48.0 KHz
Bit depth : 16 bits
Compression mode : Lossy
Stream size : 359 MiB (7%)
Title : AC3 5.1 @ 384 kbps
Language : English
Default : No
Forced : No
Text
ID : 5
Format : UTF-8
Codec ID : S_TEXT/UTF8
Codec ID/Info : UTF-8 Plain Text
Language : English
Default : No
Forced : No
Menu
00:00:00.000 : en:1
00:03:19.000 : en:2
00:07:32.000 : en:3
00:12:33.000 : en:4
00:16:20.000 : en:5
00:18:43.000 : en:6
00:21:49.000 : en:7
00:25:23.000 : en:8
00:29:42.000 : en:9
00:31:46.000 : en:10
00:36:39.000 : en:11
00:39:03.000 : en:12
00:40:52.000 : en:13
00:44:07.000 : en:14
00:48:06.000 : en:15
00:50:26.000 : en:16
00:53:42.000 : en:17
00:57:19.000 : en:18
01:01:12.000 : en:19
01:02:29.000 : en:20
01:04:18.000 : en:21
01:06:15.000 : en:22
01:09:25.000 : en:23
01:13:50.000 : en:24
01:17:15.000 : en:25
01:20:46.000 : en:26
01:23:21.000 : en:27
01:26:01.000 : en:28
01:28:12.000 : en:29
01:33:16.000 : en:30
01:35:45.000 : en:31
01:38:30.000 : en:32
01:40:34.000 : en:33
01:43:59.000 : en:34
01:45:57.000 : en:35
01:47:46.000 : en:36
01:52:05.000 : en:37
01:56:18.000 : en:38
02:00:21.000 : en:39
02:01:25.000 : en:40
Скриншоты
Скачать

Скачать торрент!

Как скачивать? · Что такое торрент? · Рейтинг и ограничения

Сайт не распространяет и не хранит электронные версии произведений, а лишь предоставляет доступ к создаваемому пользователями каталогу ссылок на торрент-файлы, которые содержат только списки хеш-сумм

[Профиль] [ЛС]
Показать сообщения:    
Ответить на тему

Текущее время: Сегодня 14:13

Часовой пояс: GMT + 4



Вы не можете начинать темы
Вы не можете отвечать на сообщения
Вы не можете редактировать свои сообщения
Вы не можете удалять свои сообщения
Вы не можете голосовать в опросах
Вы не можете прикреплять файлы к сообщениям
Вы не можете скачивать файлы