Кадры / The Internship (Шон Леви / Shawn Levy) [2013, США, комедия, BDRemux 1080p] [Theatrical Cut] Dub + Original Eng + Sub Rus, Ukr, Eng

Ответить на тему
 
Автор Сообщение

user ®

Стаж: 7 лет 7 месяцев

Сообщений: 20008

Пост Пост: #1 от 08-Ноя-2014 15:30

[Цитировать]

Кадры
The Internship / Theatrical Cut
- Страна: США | USA
Жанр: комедия
Год выпуска: 2013
Продолжительность: 1:59:25
Перевод: Профессиональный (дублированный)
+ Оригинальная звуковая дорожка | English
Cубтитры: русские, украинские, английские-Режиссер: Шон Леви / Shawn Levy
В ролях: Винс Вон, Оуэн Уилсон, Роуз Бирн, Макс Мингелла, Аасиф Мандви, Джош Бренер, Дилан О’Брайэн, Тия Сиркар, Тобит Рафаэль, Джош Гад.
Описание: Билли и Ник всю свою жизнь занимались прямыми продажами и стали настоящими профессионалами в своем деле. Однако прогресс не стоит на месте, и с появлением интернет-магазинов прямые продажи стали просто не нужны. Их компания начинает терпеть убытки и попросту закрывается, а друзья остаются без работы. Однако парни не отчаиваются и начинают искать работу в интернете. Им повезло, и у них появилась прекрасная возможность устроиться в компанию Google, но для этого им необходимо пройти тщательный отбор. На стажировку были отобраны лучшие студенты из самых престижных вузов страны. Билли и Нику придется очень сильно потрудиться, что бы переплюнуть юных компьютерных гениев и попасть в число счастливчиков, которым и будет предоставлена постоянная работа.-Тип релиза: BDRemux 1080p | EUR
Контейнер: MKV | Sample
Видео: 1920x1080 (16:9), 23.976 fps, High Profile 4.1 ~23466 kbps
Аудио 1: Russian 48 kHz, 5.1 DTS Audio, 768.00 kbps | Дубляж
Аудио 2: Ukrainian 48 kHz, 5.1 DTS Audio, 768.00 kbps | Дубляж
Аудио 3: English 48 kHz, 5.1 DTS-HD Master Audio, 3746.00 kbps | 48 kHz, 5.1 DTS Core, 1509.00 kbps | Original

Инфо
Формат : Matroska
Версия формата : Version 4 / Version 2
Размер файла : 24,0 Гбайт
Продолжительность : 1 ч. 59 м.
Режим общего битрейта : Переменный
Общий поток : 28,7 Мбит/сек
Название фильма : Кадры / The Internship 2013 Theatrical Cut
Дата кодирования : UTC 2014-11-05 07:47:21
Программа кодирования : mkvmerge v6.6.0 ('The Edge Of The In Between') built on Dec 1 2013 17:55:00
Библиотека кодирования : libebml v1.3.0 + libmatroska v1.4.1
Видео
Идентификатор : 1
Формат : AVC
Формат/Информация : Advanced Video Codec
Профиль формата : High@L4.1
Параметр CABAC формата : Да
Параметр ReFrames формата : 2 кадра
Идентификатор кодека : V_MPEG4/ISO/AVC
Продолжительность : 1 ч. 59 м.
Вид битрейта : Переменный
Ширина : 1920 пикселей
Высота : 1080 пикселей
Соотношение сторон : 16:9
Режим частоты кадров : Постоянный
Частота кадров : 23,976 кадра/сек
Цветовое пространство : YUV
Субдискретизация насыщенности : 4:2:0
Битовая глубина : 8 бит
Тип развёртки : Прогрессивная
Заголовок : Blu-ray Remux EUR Seven
Язык : English
Default : Да
Forced : Нет
Аудио #1
Идентификатор : 2
Формат : DTS
Формат/Информация : Digital Theater Systems
Режим : 16
Параметр Endianness формата : Big
Идентификатор кодека : A_DTS
Продолжительность : 1 ч. 59 м.
Вид битрейта : Постоянный
Битрейт : 768 Кбит/сек
Каналы : 6 каналов
Расположение каналов : Front: L C R, Side: L R, LFE
Частота : 48,0 КГц
Битовая глубина : 24 бит
Метод сжатия : С потерями
Размер потока : 656 Мбайт (3%)
Заголовок : Dub
Язык : Russian
Default : Да
Forced : Нет
Аудио #2
Идентификатор : 3
Формат : DTS
Формат/Информация : Digital Theater Systems
Режим : 16
Параметр Endianness формата : Big
Идентификатор кодека : A_DTS
Продолжительность : 1 ч. 59 м.
Вид битрейта : Постоянный
Битрейт : 768 Кбит/сек
Каналы : 6 каналов
Расположение каналов : Front: L C R, Side: L R, LFE
Частота : 48,0 КГц
Битовая глубина : 24 бит
Метод сжатия : С потерями
Размер потока : 656 Мбайт (3%)
Заголовок : Dub
Язык : Ukrainian
Default : Нет
Forced : Нет
Аудио #3
Идентификатор : 4
Формат : DTS
Формат/Информация : Digital Theater Systems
Профиль формата : MA / Core
Режим : 16
Параметр Endianness формата : Big
Идентификатор кодека : A_DTS
Продолжительность : 1 ч. 59 м.
Вид битрейта : Переменный
Битрейт : Неизвестно / 1509 Кбит/сек
Каналы : 6 каналов
Расположение каналов : Front: L C R, Side: L R, LFE
Частота : 48,0 КГц
Битовая глубина : 24 бит
Метод сжатия : Без потерь / Lossy
Заголовок : Original
Язык : English
Default : Нет
Forced : Нет
Текст #1
Идентификатор : 5
Формат : UTF-8
Идентификатор кодека : S_TEXT/UTF8
Идентификатор кодека/Информация : UTF-8 Plain Text
Заголовок : Full
Язык : Russian
Default : Нет
Forced : Нет
Текст #2
Идентификатор : 6
Формат : UTF-8
Идентификатор кодека : S_TEXT/UTF8
Идентификатор кодека/Информация : UTF-8 Plain Text
Заголовок : Full
Язык : Ukrainian
Default : Нет
Forced : Нет
Текст #3
Идентификатор : 7
Формат : UTF-8
Идентификатор кодека : S_TEXT/UTF8
Идентификатор кодека/Информация : UTF-8 Plain Text
Заголовок : Full SDH
Язык : English
Default : Нет
Forced : Нет
Меню
00:00:00.000 : en:(01)00:00:00:000
00:05:28.036 : en:(02)00:05:28:036
00:07:39.709 : en:(03)00:07:39:709
00:11:12.880 : en:(04)00:11:12:880
00:16:13.180 : en:(05)00:16:13:180
00:22:29.556 : en:(06)00:22:29:556
00:25:30.403 : en:(07)00:25:30:403
00:28:11.439 : en:(08)00:28:11:439
00:31:35.852 : en:(09)00:31:35:852
00:32:50.426 : en:(10)00:32:50:426
00:38:23.092 : en:(11)00:38:23:092
00:41:06.005 : en:(12)00:41:06:005
00:44:35.923 : en:(13)00:44:35:923
00:47:11.036 : en:(14)00:47:11:036
00:55:01.214 : en:(15)00:55:01:214
00:58:51.235 : en:(16)00:58:51:235
01:02:42.258 : en:(17)01:02:42:258
01:06:58.472 : en:(18)01:06:58:472
01:09:41.218 : en:(19)01:09:41:218
01:11:24.071 : en:(20)01:11:24:071
01:14:31.591 : en:(21)01:14:31:591
01:17:04.452 : en:(22)01:17:04:452
01:19:48.783 : en:(23)01:19:48:783
01:21:44.232 : en:(24)01:21:44:232
01:23:34.884 : en:(25)01:23:34:884
01:25:14.650 : en:(26)01:25:14:650
01:27:17.064 : en:(27)01:27:17:064
01:32:50.064 : en:(28)01:32:50:064
01:38:06.088 : en:(29)01:38:06:088
01:43:45.969 : en:(30)01:43:45:969
01:49:51.960 : en:(31)01:49:51:960
01:53:10.783 : en:(32)01:53:10:783
01:59:24.907 : en:(33)01:59:24:907
Скриншоты
Скачать

Скачать торрент!

Как скачивать? · Что такое торрент? · Рейтинг и ограничения

Сайт не распространяет и не хранит электронные версии произведений, а лишь предоставляет доступ к создаваемому пользователями каталогу ссылок на торрент-файлы, которые содержат только списки хеш-сумм

[Профиль] [ЛС]
Показать сообщения:    
Ответить на тему

Текущее время: Сегодня 12:28

Часовой пояс: GMT + 4



Вы не можете начинать темы
Вы не можете отвечать на сообщения
Вы не можете редактировать свои сообщения
Вы не можете удалять свои сообщения
Вы не можете голосовать в опросах
Вы не можете прикреплять файлы к сообщениям
Вы не можете скачивать файлы