Тайна ордена / The Order (Шелдон Леттич / Sheldon Lettich) [2001, Аруба, США, боевик, комедия, приключения, BDRemux 1080p] MVO + DVO + Original Eng + subs (Rus, Eng)

Ответить на тему
 
Автор Сообщение

user ®

Стаж: 7 лет 7 месяцев

Сообщений: 20008

Пост Пост: #1 от 07-Ноя-2014 22:05

[Цитировать]

Тайна ордена / The Order- Год выпуска: 2001
Страна: Аруба, США
Жанр: боевик, комедия, приключения
Продолжительность: 01:29:22
Перевод: Профессиональный (многоголосый, закадровый)
+ Профессиональный (двухголосый, закадровый)
Оригинальная звуковая дорожка: English
Cубтитры: Russian, English-Режиссер: Шелдон Леттич / Sheldon Lettich
В ролях: Жан-Клод Ван Дамм, Чарлтон Хестон, София Милош, Брайан Томпсон, Бен Кросс, Вернон Добчефф, Сэссон Габаи, Алон Абутбул, Джой Томаска, Питер Малота
О фильме: Неутомимый искатель приключений Руди Кафмайер, промышляющий добычей уникальных произведений искусства и редкостных диковин для богатых коллекционеров, отправляется в Израиль на поиски своего пропавшего отца, составлявшего летопись древней таинственной секты «Орден».
В Иерусалиме за авантюристом со скандальной репутацией сразу начинают охотиться наемные убийцы и полиция во главе с отважной Далией Барр, которая не раз спасет Руди жизнь во время головокружительных погонь и бешеных перестрелок на узких улочках древнего города, прежде чем ему удастся разоблачить глобальный заговор безумного главаря «Ордена» стремящегося начать новую Священную войну и установить на Земле власть крови и террора.-Релиз: by kingsize87
Тип релиза: BDRemux 1080p
Формат: MKV
Видео: 1920х1080 at 23.976 fps, MPEG-4 AVC, ~27884 kbps avg, 16:9 / High Profile 4.1
Аудио #01: Russian: 48 kHz, AC3, 2/0 (L,R) ch, ~192.00 kbps avg |Многоголосый закадровый|
Аудио #02: Russian: 48 kHz, AC3 Dolby Digital, 3/2 (L,C,R,l,r) + LFE ch, ~448.00 kbps avg |Двухголосый закадровый|
Аудио #03: English: 48 kHz/16-bit, DTS-HD MA 5.1, ~2081.00 kbps avg (DTS Core: 5.1 / 48 kHz / 1509 kbps / 16-bit)
Семпл-

Скриншоты
-
MInfo
Формат : Matroska
Версия формата : Version 4 / Version 2
Размер файла : 19,1 Гбайт
Продолжительность : 1 ч. 29 м.
Режим общего битрейта : Переменный
Общий поток : 30,6 Мбит/сек
Дата кодирования : UTC 2014-11-03 19:16:06
Программа кодирования : mkvmerge v6.1.0 ('Old Devil') built on Mar 2 2013 14:32:37
Библиотека кодирования : libebml v1.3.0 + libmatroska v1.4.0
Видео
Идентификатор : 1
Формат : AVC
Формат/Информация : Advanced Video Codec
Профиль формата : High@L4.1
Параметр CABAC формата : Да
Параметр ReFrames формата : 2 кадра
Параметр GOP формата : M=1, N=10
Идентификатор кодека : V_MPEG4/ISO/AVC
Продолжительность : 1 ч. 29 м.
Вид битрейта : Переменный
Ширина : 1920 пикселей
Высота : 1080 пикселей
Соотношение сторон : 16:9
Режим частоты кадров : Постоянный
Частота кадров : 23,976 кадра/сек
Цветовое пространство : YUV
Субдискретизация насыщенности : 4:2:0
Битовая глубина : 8 бит
Тип развёртки : Прогрессивная
Default : Да
Forced : Нет
Аудио #1
Идентификатор : 2
Формат : AC-3
Формат/Информация : Audio Coding 3
Расширение режима : CM (complete main)
Параметр Endianness формата : Big
Идентификатор кодека : A_AC3
Продолжительность : 1 ч. 29 м.
Вид битрейта : Постоянный
Битрейт : 192 Кбит/сек
Каналы : 2 канала
Расположение каналов : Front: L R
Частота : 48,0 КГц
Битовая глубина : 16 бит
Метод сжатия : С потерями
Размер потока : 123 Мбайт (1%)
Заголовок : MVO
Язык : Russian
Default : Да
Forced : Нет
Аудио #2
Идентификатор : 3
Формат : AC-3
Формат/Информация : Audio Coding 3
Расширение режима : CM (complete main)
Параметр Endianness формата : Big
Идентификатор кодека : A_AC3
Продолжительность : 1 ч. 29 м.
Вид битрейта : Постоянный
Битрейт : 448 Кбит/сек
Каналы : 6 каналов
Расположение каналов : Front: L C R, Side: L R, LFE
Частота : 48,0 КГц
Битовая глубина : 16 бит
Метод сжатия : С потерями
Размер потока : 286 Мбайт (1%)
Заголовок : DVO
Язык : Russian
Default : Нет
Forced : Нет
Аудио #3
Идентификатор : 4
Формат : DTS
Формат/Информация : Digital Theater Systems
Профиль формата : MA / Core
Режим : 16
Параметр Endianness формата : Big
Идентификатор кодека : A_DTS
Продолжительность : 1 ч. 29 м.
Вид битрейта : Переменный
Битрейт : Неизвестно / 1509 Кбит/сек
Каналы : 6 каналов
Расположение каналов : Front: L C R, Side: L R, LFE
Частота : 48,0 КГц
Битовая глубина : 16 бит
Метод сжатия : Без потерь / Lossy
Язык : English
Default : Нет
Forced : Нет
Текст #1
Идентификатор : 5
Формат : UTF-8
Идентификатор кодека : S_TEXT/UTF8
Идентификатор кодека/Информация : UTF-8 Plain Text
Язык : Russian
Default : Нет
Forced : Нет
Текст #2
Идентификатор : 6
Формат : UTF-8
Идентификатор кодека : S_TEXT/UTF8
Идентификатор кодека/Информация : UTF-8 Plain Text
Язык : English
Default : Нет
Forced : Нет
Меню
00:00:00.000 : en:00:00:00.000
00:04:50.749 : en:00:04:50.749
00:10:09.984 : en:00:10:09.984
00:16:26.944 : en:00:16:26.944
00:20:53.711 : en:00:20:53.711
00:25:11.927 : en:00:25:11.927
00:29:16.964 : en:00:29:16.964
00:34:48.420 : en:00:34:48.420
00:39:24.070 : en:00:39:24.070
00:44:15.236 : en:00:44:15.236
00:49:50.696 : en:00:49:50.696
00:55:47.636 : en:00:55:47.636
01:00:31.962 : en:01:00:31.962
01:07:34.884 : en:01:07:34.884
01:11:41.964 : en:01:11:41.964
01:20:01.255 : en:01:20:01.255

-
Цитата:
* За исходник спасибо Bit-HQ.
* Сохранены оригинальные чаптеры как на blu-ray.
* За помощь в подготовке релиза большое спасибо Gellard.
Скачать

Скачать торрент!

Как скачивать? · Что такое торрент? · Рейтинг и ограничения

Сайт не распространяет и не хранит электронные версии произведений, а лишь предоставляет доступ к создаваемому пользователями каталогу ссылок на торрент-файлы, которые содержат только списки хеш-сумм

[Профиль] [ЛС]
Показать сообщения:    
Ответить на тему

Текущее время: Сегодня 05:11

Часовой пояс: GMT + 4



Вы не можете начинать темы
Вы не можете отвечать на сообщения
Вы не можете редактировать свои сообщения
Вы не можете удалять свои сообщения
Вы не можете голосовать в опросах
Вы не можете прикреплять файлы к сообщениям
Вы не можете скачивать файлы