Человек ноября / The November Man (Роджер Дональдсон / Roger Donaldson) [2014, США, боевик, триллер, криминал, WEB-DLRip] Dub (iTunes)

Ответить на тему
 
Автор Сообщение

user ®

Стаж: 7 лет 7 месяцев

Сообщений: 20008

Пост Пост: #1 от 07-Ноя-2014 12:35

[Цитировать]

Человек ноября / The November Man
Страна: США
Жанр: боевик, триллер, криминал
Год выпуска: 2014
Продолжительность: 01:43:28
Перевод: Профессиональный (дублированный) iTunes
Режиссер: Роджер Дональдсон / Roger Donaldson
В ролях: Пирс Броснан, Люк Брейси, Ольга Куриленко, Билл Смитрович, Амила Терзимехик, Лазар Ристовски, Медиха Муслиович, Элайза Тейлор, Катерина Скорсоне, Аки Котабе
Описание: Экс-агент ЦРУ, невольно вернувшись в дело, оказывается в эпицентре международной интриги, затеянной главами разведывательного управления. В их планах — внедрение во внутреннюю политику стран Восточной Европы через кандидата в президенты РФ с помощью шантажа грязным прошлым. На его совести — вторая вспышка войны на Северном Кавказе, жертвы, насилие. Но Питер Дэверо разгадывает тайны нечестной игры …

Сэмпл: https://yadi.sk/i/FyhxxFTscWd2i
Качество видео: WEB-DLRip
Формат видео: AVI
Видео: 688x288 (2,40:1), 25,000 fps, Xvid build 73 ~870 kbps avg, 0.176 bit/pixel
Аудио: 48 kHz, MPEG Layer 3, 2 ch, ~128.00 kbps avg
MediaInfo
Общее
Полное имя : The.November.Man.2014.D.WEB-DLRip.avi
Формат : AVI
Формат/Информация : Audio Video Interleave
Размер файла : 746 Мбайт
Продолжительность : 1 ч. 43 м.
Общий поток : 1008 Кбит/сек
Программа кодирования : VirtualDubMod 1.5.10.3 | www.virtualdub-fr.org || (build 2550/release)
Библиотека кодирования : VirtualDubMod build 2550/release
Видео
Идентификатор : 0
Формат : MPEG-4 Visual
Профиль формата : Advanced Simple@L5
Параметр BVOP формата : 1
Параметр QPel формата : Нет
Параметр GMC формата : Без точки перехода
Параметр матрицы формата : Выборочная
Идентификатор кодека : XVID
Идентификатор кодека/Подсказка : XviD
Продолжительность : 1 ч. 43 м.
Битрейт : 870 Кбит/сек
Ширина : 688 пикселей
Высота : 288 пикселей
Соотношение сторон : 2,40:1
Частота кадров : 25,000 кадров/сек
Цветовое пространство : YUV
Субдискретизация насыщенности : 4:2:0
Битовая глубина : 8 бит
Тип развёртки : Прогрессивная
Метод сжатия : С потерями
Бит/(Пиксели*Кадры) : 0.176
Размер потока : 644 Мбайт (86%)
Библиотека кодирования : XviD 73
Аудио
Идентификатор : 1
Формат : MPEG Audio
Версия формата : Version 1
Профиль формата : Layer 3
Идентификатор кодека : 55
Идентификатор кодека/Подсказка : MP3
Продолжительность : 1 ч. 43 м.
Вид битрейта : Постоянный
Битрейт : 128 Кбит/сек
Каналы : 2 канала
Частота : 48,0 КГц
Метод сжатия : С потерями
Размер потока : 94,7 Мбайт (13%)
Выравнивание : Соединение по промежуткам
Продолжительность промежутка : 40 мс. (1,00 видеокадр)
Время предзагрузки промежутка : 504 мс.
Библиотека кодирования : LAME3.99r
Настройки программы : -m s -V 4 -q 2 -lowpass 17 -b 128
Скриншот c названием фильма Скриншоты
Скачать

Скачать торрент!

Как скачивать? · Что такое торрент? · Рейтинг и ограничения

Сайт не распространяет и не хранит электронные версии произведений, а лишь предоставляет доступ к создаваемому пользователями каталогу ссылок на торрент-файлы, которые содержат только списки хеш-сумм

[Профиль] [ЛС]
Показать сообщения:    
Ответить на тему

Текущее время: Сегодня 07:51

Часовой пояс: GMT + 4



Вы не можете начинать темы
Вы не можете отвечать на сообщения
Вы не можете редактировать свои сообщения
Вы не можете удалять свои сообщения
Вы не можете голосовать в опросах
Вы не можете прикреплять файлы к сообщениям
Вы не можете скачивать файлы