Грань будущего / Edge of Tomorrow (Даг Лайман / Doug Liman) [2014, США, Австралия, фантастика, боевик, HDRip] Dub

Ответить на тему
 
Автор Сообщение

user ®

Стаж: 7 лет 7 месяцев

Сообщений: 20008

Пост Пост: #1 от 07-Ноя-2014 12:35

[Цитировать]

Грань будущего / Edge of Tomorrow«Живи. Умри. И снова»- Страна: США, Австралия
Жанр: фантастика, боевик
Год выпуска: 2014
Продолжительность: 01:53:29-Перевод: Профессиональный (дублированный) |Лицензия|
Cубтитры: нет
Режиссер: Даг Лайман / Doug Liman-В ролях: Том Круз, Эмили Блант, Брендан Глисон, Билл Пэкстон, Джонас Армстронг, Тони Вэй, Кик Гарри, Франц Драмех, Драгомир Мрсич, Шарлотта Райли-Описание: История разворачивается в недалеком будущем, когда похожая на рой раса инопланетян, названных мимиками, совершает безжалостное нападение на Землю, стерев в пыль крупные города и уничтожив миллионы жизней. Армии Земли объединят силы, чтобы вступить в последний бой с полчищами инопланетян, зная, что второго шанса у них не будет.
Подполковник Билл Кейдж — ни разу не был на поле битвы, пока его не бросили в самую гущу боя неподготовленного и плохо снаряженного, фактически обрекая на смерть. Через считанные минуты Кейджа убивают, но он захватывает с собой и жизнь пришельца. И случается невозможное — он просыпается живым в начале того же адского дня, и вынужден сражаться и умирать… снова и снова. Прямой физический контакт с пришельцем замкнул временную петлю, и теперь Кейдж вновь и вновь идет в тот же бой.
Но с каждым возвращением Кейдж становится более жестоким и умным в битве с мимиками, сражаясь бок о бок с бойцом спецназа Ритой Вратаски, уничтожившей больше мимиков, чем кто бы то ни было еще на Земле. Рита и Кейдж раз за разом дают бой пришельцам, и каждое повторяющееся сражение приближает их к разгадке того, как убить инопланетных захватчиков и спасти планету.- - -Качество видео: HDRip
Формат видео: AVI-Видео: 720*304 (2.37:1), 23.976 fps, XviD build 73 ~1624 kbps avg, 0.31 bit/pixel
Аудио: 48 kHz, AC3 Dolby Digital, 2/0 (L,R) ch, ~192 kbps
-MediaInfo
General
Complete name : D:\Edge of Tomorrow_2014_HDRip.avi
Format : AVI
Format/Info : Audio Video Interleave
File size : 1.45 GiB
Duration : 1h 53mn
Overall bit rate : 1 826 Kbps
Writing application : VirtualDubMod 1.5.10.3 | www.virtualdub-fr.org || (build 2550/release)
Writing library : VirtualDubMod build 2550/release
Video
ID : 0
Format : MPEG-4 Visual
Format profile : Advanced Simple@L5
Format settings, BVOP : 1
Format settings, QPel : No
Format settings, GMC : No warppoints
Format settings, Matrix : Custom
Codec ID : XVID
Codec ID/Hint : XviD
Duration : 1h 53mn
Bit rate : 1 624 Kbps
Width : 720 pixels
Height : 304 pixels
Display aspect ratio : 2.35:1
Frame rate : 23.976 fps
Color space : YUV
Chroma subsampling : 4:2:0
Bit depth : 8 bits
Scan type : Progressive
Compression mode : Lossy
Bits/(Pixel*Frame) : 0.309
Stream size : 1.29 GiB (89%)
Writing library : XviD 73
Audio
ID : 1
Format : AC-3
Format/Info : Audio Coding 3
Mode extension : CM (complete main)
Format settings, Endianness : Big
Codec ID : 2000
Duration : 1h 53mn
Bit rate mode : Constant
Bit rate : 192 Kbps
Channel(s) : 2 channels
Channel positions : Front: L R
Sampling rate : 48.0 KHz
Bit depth : 16 bits
Compression mode : Lossy
Stream size : 156 MiB (11%)
Alignment : Split accross interleaves
Interleave, duration : 42 ms (1.00 video frame)
Interleave, preload duration : 500 ms
Скриншот c названием фильма Скриншоты -
Скачать

Скачать торрент!

Как скачивать? · Что такое торрент? · Рейтинг и ограничения

Сайт не распространяет и не хранит электронные версии произведений, а лишь предоставляет доступ к создаваемому пользователями каталогу ссылок на торрент-файлы, которые содержат только списки хеш-сумм

[Профиль] [ЛС]
Показать сообщения:    
Ответить на тему

Текущее время: Сегодня 20:40

Часовой пояс: GMT + 4



Вы не можете начинать темы
Вы не можете отвечать на сообщения
Вы не можете редактировать свои сообщения
Вы не можете удалять свои сообщения
Вы не можете голосовать в опросах
Вы не можете прикреплять файлы к сообщениям
Вы не можете скачивать файлы