Заснеженный всадник (Алексей Туркус) [2011, анимационный фильм, DVDScreener]

Ответить на тему
 
Автор Сообщение

user ®

Стаж: 7 лет 7 месяцев

Сообщений: 20008

Пост Пост: #1 от 06-Ноя-2014 17:20

[Цитировать]

Заснеженный всадник
Страна: Россия
Жанр: анимационный фильм
Продолжительность: 00:17:47
Год выпуска: 2011
Русские субтитры: нет
Режиссёр: Алексей Туркус
Описание: Фильм-воспоминание об отце Алексея Туркуса, знаменитом архитекторе Михаиле Туркусе. В фильме нет ни слова о профессии отца, а только нежность и восторженные фантазии ребенка, по шутливым рассказам папы представлявшего себе его то полководцем, то разбойником.
Доп. информация: Гран-при Открытый фестиваль анимационного кино, Суздаль (Россия), 2012
Лучший анимационный фильм Фестиваль российского кино 'Окно в Европу', Выборг (Россия), 2012
Премия "Золотой орёл", Москва (Россия), 2013
Премия «НИКА», Москва (Россия), 2013
Международный кинофестиваль им. А. Тарковского 'Зеркало', Иваново (Россия), 2012
Большой фестиваль мультфильмов, Воронеж (Россия), 2012
Московский международный кинофестиваль (ММКФ), Москва (Россия), 2012
Фестиваль отечественного кино ''Московская премьера'', Москва (Россия), 2012
Международный кинофестиваль "Меридианы Тихого", Владивосток (Россия), 2012
Фестиваль русского кино в Лондоне, Лондон (Великобритания), 2012
Большой фестиваль мультфильмов, Москва (Россия), 2011
Качество: DVDScreener
Формат: AVI
Видео: DIVX, 720x536, 25fps, 2126kbps
Аудио: MPEG Layer 3, 48kHz, 2ch, 192kbps
Субтитры: отсутствуют
Подробные технические данные
Полное имя : Заснеженный всадник.aviФормат : AVIФормат/Информация : Audio Video InterleaveРазмер файла : 296 МбайтПродолжительность : 17 м.Общий поток : 2328 Кбит/секПрограмма кодирования : VirtualDubMod 1.5.10.3 | www.virtualdub-fr.org || (build 2550/release)Библиотека кодирования : VirtualDubMod build 2550/release
ВидеоИдентификатор : 0Формат : MPEG-4 VisualПрофиль формата : Advanced Simple@L5Параметр BVOP формата : 1Параметр QPel формата : НетПараметр GMC формата : Без точки переходаПараметр матрицы формата : Default (H.263)Идентификатор кодека : DIVXИдентификатор кодека/Информация : Project MayoИдентификатор кодека/Подсказка : DivX 4Продолжительность : 17 м.Битрейт : 2126 Кбит/секШирина : 720 пикселейВысота : 536 пикселейСоотношение сторон : 4:3Частота кадров : 25,000 кадров/секЦветовое пространство : YUVСубдискретизация насыщенности : 4:2:0Битовая глубина : 8 битТип развёртки : ПрогрессивнаяМетод сжатия : С потерямиБит/(Пиксели*Кадры) : 0.220Размер потока : 271 Мбайт (91%)Библиотека кодирования : XviD 1.2.1 (UTC 2008-12-04)
АудиоИдентификатор : 1Формат : MPEG AudioВерсия формата : Version 1Профиль формата : Layer 3Идентификатор кодека : 55Идентификатор кодека/Подсказка : MP3Продолжительность : 17 м.Вид битрейта : ПостоянныйБитрейт : 192 Кбит/секКаналы : 2 каналаЧастота : 48,0 КГцМетод сжатия : С потерямиРазмер потока : 24,4 Мбайт (8%)Выравнивание : Соединение по промежуткамПродолжительность промежутка : 40 мс. (1,00 видеокадр)Время предзагрузки промежутка : 504 мс.Библиотека кодирования : LAME3.99rНастройки программы : -m s -V 4 -q 0 -lowpass 18.6 -b 192
Скриншоты
Скачать

Скачать торрент!

Как скачивать? · Что такое торрент? · Рейтинг и ограничения

Сайт не распространяет и не хранит электронные версии произведений, а лишь предоставляет доступ к создаваемому пользователями каталогу ссылок на торрент-файлы, которые содержат только списки хеш-сумм

[Профиль] [ЛС]
Показать сообщения:    
Ответить на тему

Текущее время: Сегодня 00:15

Часовой пояс: GMT + 4



Вы не можете начинать темы
Вы не можете отвечать на сообщения
Вы не можете редактировать свои сообщения
Вы не можете удалять свои сообщения
Вы не можете голосовать в опросах
Вы не можете прикреплять файлы к сообщениям
Вы не можете скачивать файлы