Ромео и Джульетта / Romeo & Juliet (Карло Карлей / Carlo Carlei) [2013, Великобритания, Драма, Мелодрама, HDTV 1080i] MVO + Sub Rus + Original Eng

Ответить на тему
 
Автор Сообщение

user ®

Стаж: 7 лет 7 месяцев

Сообщений: 20008

Пост Пост: #1 от 06-Ноя-2014 17:20

[Цитировать]

Ромео и Джульетта / Romeo and Juliet
Страна: Великобритания
Студия: Amber Entertainment
Жанр: Драма, Мелодрама
Год выпуска: 2013
Продолжительность: 01:48:00
Перевод: Профессиональный (многоголосый закадровый)
Cубтитры: русские
Оригинальная аудиодорожка: английский
Режиссер: Карло Карлей / Carlo Carlei
В ролях: Дуглас Бут, Хейли Стайнфелд, Дэмиэн Льюис, Коди Смит-МакФи, Эд Вествик, Пол Джаматти, Томас Арана, Наташа МакЭлхоун, Стеллан Скарсгард, Лесли Мэнвилл
Описание: Величайшая история любви всех времен в последней экранизации бессмертного романа Уильяма Шекспира «Ромео и Джульетта». Дуглас Бут («Ной») в роли Ромео и номинант на премию «Оскар» Хейли Стайнфельд («Железная хватка») в роли Джульетты. Этой любви не суждено было случиться, и лишь смерть на пике страсти благословила их союз.
Сэмпл: http://multi-up.com/1011025
Тип релиза: HDTV 1080i
Контейнер: TS
Видео: AVC, 1920х1080, 16:9, 6692 Кбит/сек, 25 fps
Аудио: (русский) MPEG Audio, 192 Кбит/сек, 48 КГц, 2 канала
Аудио 2: (english) MPEG Audio, 192 Кбит/сек, 48 КГц, 2 канала
Аудио 3: (русский) АС 3, 384 Кбит/сек, 48 КГц, 6 каналов
Формат субтитров: Teletext Sub Page 888
MediaInfo
Общее
Идентификатор : 16 (0x10)
Полное имя : Romeo and Juliet_HD.ts
Формат : MPEG-TS
Размер файла : 5,94 Гбайт
Продолжительность : 1 ч. 48 м.
Режим общего битрейта : Переменный
Общий поток : 7856 Кбит/сек
Видео
Идентификатор : 1812 (0x714)
Идентификатор меню : 812 (0x32C)
Формат : AVC
Формат/Информация : Advanced Video Codec
Профиль формата : High@L4.0
Параметр CABAC формата : Да
Параметр ReFrames формата : 4 кадра
Идентификатор кодека : 27
Продолжительность : 1 ч. 48 м.
Битрейт : 6692 Кбит/сек
Ширина : 1920 пикселей
Высота : 1080 пикселей
Соотношение сторон : 16:9
Частота кадров : 25,000 кадров/сек
Стандарт вещания : PAL
Цветовое пространство : YUV
Субдискретизация насыщенности : 4:2:0
Битовая глубина : 8 бит
Тип развёртки : MBAFF
Бит/(Пиксели*Кадры) : 0.129
Размер потока : 5,06 Гбайт (85%)
Основные цвета : BT.709
Характеристики трансфера : BT.709
Коэффициенты матрицы : BT.709
Аудио #1
Идентификатор : 2812 (0xAFC)
Идентификатор меню : 812 (0x32C)
Формат : MPEG Audio
Версия формата : Version 1
Профиль формата : Layer 2
Режим : Joint stereo
Расширение режима : Intensity Stereo + MS Stereo
Идентификатор кодека : 4
Продолжительность : 1 ч. 48 м.
Вид битрейта : Постоянный
Битрейт : 192 Кбит/сек
Каналы : 2 канала
Частота : 48,0 КГц
Метод сжатия : С потерями
Задержка видео : 41 мс.
Размер потока : 149 Мбайт (2%)
Язык : std
Язык, дополнительно : Clean effects
Аудио #2
Идентификатор : 3812 (0xEE4)
Идентификатор меню : 812 (0x32C)
Формат : MPEG Audio
Версия формата : Version 1
Профиль формата : Layer 2
Режим : Joint stereo
Расширение режима : Intensity Stereo + MS Stereo
Идентификатор кодека : 4
Продолжительность : 1 ч. 48 м.
Вид битрейта : Постоянный
Битрейт : 192 Кбит/сек
Каналы : 2 канала
Частота : 48,0 КГц
Метод сжатия : С потерями
Задержка видео : 41 мс.
Размер потока : 149 Мбайт (2%)
Язык : English
Язык, дополнительно : Clean effects
Аудио #3
Идентификатор : 4812 (0x12CC)
Идентификатор меню : 812 (0x32C)
Формат : AC-3
Формат/Информация : Audio Coding 3
Расширение режима : CM (complete main)
Параметр Endianness формата : Big
Идентификатор кодека : 6
Продолжительность : 1 ч. 48 м.
Вид битрейта : Постоянный
Битрейт : 384 Кбит/сек
Каналы : 6 каналов
Расположение каналов : Front: L C R, Side: L R, LFE
Частота : 48,0 КГц
Битовая глубина : 16 бит
Метод сжатия : С потерями
Задержка видео : 24 мс.
Размер потока : 297 Мбайт (5%)
Язык : std
Язык, дополнительно : Clean effects
Текст
Идентификатор : 63 (0x3F)-100
Идентификатор меню : 812 (0x32C)
Формат : Teletext
Меню
Идентификатор : 812 (0x32C)
Идентификатор меню : 812 (0x32C)
Продолжительность : 1 ч. 48 м.
Список : 1812 (0x714) (AVC) / 2812 (0xAFC) (MPEG Audio, std) / 3812 (0xEE4) (MPEG Audio, English) / 4812 (0x12CC) (AC-3, std) / 63 (0x3F) ()
Язык : / std / English / std
Скриншоты
Скачать

Скачать торрент!

Как скачивать? · Что такое торрент? · Рейтинг и ограничения

Сайт не распространяет и не хранит электронные версии произведений, а лишь предоставляет доступ к создаваемому пользователями каталогу ссылок на торрент-файлы, которые содержат только списки хеш-сумм

[Профиль] [ЛС]
Показать сообщения:    
Ответить на тему

Текущее время: Сегодня 02:03

Часовой пояс: GMT + 4



Вы не можете начинать темы
Вы не можете отвечать на сообщения
Вы не можете редактировать свои сообщения
Вы не можете удалять свои сообщения
Вы не можете голосовать в опросах
Вы не можете прикреплять файлы к сообщениям
Вы не можете скачивать файлы