Дископат / Discopathe (Рено Готье / Renaud Gauthier) [2014, Канада, ужасы, фэнтези, криминал, HDRip] MVO

Ответить на тему
 
Автор Сообщение

user ®

Стаж: 7 лет 7 месяцев

Сообщений: 20008

Пост Пост: #1 от 06-Ноя-2014 09:00

[Цитировать]

Дископат / Discopathe
Страна: Канада
Жанр: ужасы, фэнтези, криминал
Год выпуска: 2014
Продолжительность: 01:20:58
Перевод: Любительский (многоголосый закадровый) Александр Харченко, DeadSno & den904
По переводу: Антонио
Cубтитры: нет
Оригинальная аудиодорожка: нет
Режиссер: Рено Готье / Renaud Gauthier
В ролях: Кэтерин Антаки, Франсуа Обен, Сандрин Биссон, Нэнси Блэ, Кэтерин Кастелуччи, Кэтерин Клилэнд, Иван Фройд
Описание: Середина 70-х годов прошлого века. Застенчивый молодой человек, житель Нью-Йорка, ведёт ничем не примечательную жизнь, пока его роковым образом не настигают ритмы музыки нового жанра - диско. Не в силах сдерживать смертоубийственные порывы, в основе которых лежит давняя детская травма, Дуэйн Луис превращается в опасного серийного убийцу и бежит в Монреаль...
Доп. информация:

Сэмпл: http://multi-up.com/1011161
Качество видео: HDRip
Формат видео: AVI
Видео: 720x304 (2.37:1), 23.976 fps, XviD MPEG-4 ~1987 kbps avg, 0.38 bit/pixel
Аудио: 48 kHz, AC3 Dolby Digital, 3/2 (L,C,R,l,r) + LFE ch, ~448 kbps
MediaInfo
General
Complete name : C:\Users\Вика\Desktop\Disсораth.2013.HDRip.avi
Format : AVI
Format/Info : Audio Video Interleave
File size : 1.38 GiB
Duration : 1h 20mn
Overall bit rate : 2 445 Kbps
Writing application : VirtualDubMod 1.5.10.2 (build 2542/release)
Writing library : VirtualDubMod build 2542/release
Video
ID : 0
Format : MPEG-4 Visual
Format profile : Advanced Simple@L5
Format settings, BVOP : Yes
Format settings, QPel : No
Format settings, GMC : No warppoints
Format settings, Matrix : Default (H.263)
Codec ID : XVID
Codec ID/Hint : XviD
Duration : 1h 20mn
Bit rate : 1 988 Kbps
Width : 720 pixels
Height : 304 pixels
Display aspect ratio : 2.35:1
Frame rate : 23.976 fps
Color space : YUV
Chroma subsampling : 4:2:0
Bit depth : 8 bits
Scan type : Progressive
Compression mode : Lossy
Bits/(Pixel*Frame) : 0.379
Stream size : 1.12 GiB (81%)
Writing library : XviD 64
Audio
ID : 1
Format : AC-3
Format/Info : Audio Coding 3
Mode extension : CM (complete main)
Format settings, Endianness : Big
Codec ID : 2000
Duration : 1h 20mn
Bit rate mode : Constant
Bit rate : 448 Kbps
Channel count : 6 channels
Channel positions : Front: L C R, Side: L R, LFE
Sampling rate : 48.0 KHz
Bit depth : 16 bits
Compression mode : Lossy
Stream size : 259 MiB (18%)
Alignment : Split accross interleaves
Interleave, duration : 42 ms (1.00 video frame)
Interleave, preload duration : 500 ms
Скриншот c названием фильма Скриншоты
Скачать

Скачать торрент!

Как скачивать? · Что такое торрент? · Рейтинг и ограничения

Сайт не распространяет и не хранит электронные версии произведений, а лишь предоставляет доступ к создаваемому пользователями каталогу ссылок на торрент-файлы, которые содержат только списки хеш-сумм

[Профиль] [ЛС]
Показать сообщения:    
Ответить на тему

Текущее время: Сегодня 07:08

Часовой пояс: GMT + 4



Вы не можете начинать темы
Вы не можете отвечать на сообщения
Вы не можете редактировать свои сообщения
Вы не можете удалять свои сообщения
Вы не можете голосовать в опросах
Вы не можете прикреплять файлы к сообщениям
Вы не можете скачивать файлы