Дружинники / The Watch (Акива Шаффер / Akiva Schaffer) [2012, США, фантастика, комедия, BDRemux 1080p] Dub + Ukr + Original Eng + Sub Rus, Ukr, Eng

Ответить на тему
 
Автор Сообщение

user ®

Стаж: 7 лет 7 месяцев

Сообщений: 20008

Пост Пост: #1 от 06-Ноя-2014 02:40

[Цитировать]

Дружинники / The Watch- Страна: США | USA
Жанр: фантастика, комедия
Год выпуска: 2012
Продолжительность: 01:41:57
Перевод: Профессиональный (дублированный)
+ Оригинальная звуковая дорожка | English
Cубтитры: русские, украинские, английские-Режиссер: Акива Шаффер / Akiva Schaffer
В ролях: Бен Стиллер, Винс Вон, Джона Хилл, Ричард Айоаде, Розмари ДеУитт, Уилл Форте, Эрин Мориарти, Николас Браун, Р. Ли Эрми, Билли Крудап.
Описание: Несколько соседей из довольно тихого маленького местечка, решили организовать бригаду дружинников, для поддержания правопорядка в родном районе и патрулирования местности. На самом деле мужчины просто придумали для себя идеальный способ, хоть изредка сбегать из дома, чтобы не сидеть в кругу семьи, а проводить время в веселых кутежах в своей компании. Долгое время все шло просто отлично, жены думали, что их мужья отличные ребята и заботятся о их безопасности, а те вселились на полную катушку. Однако совершенно случайно дозорные узнали, что готовится коварный заговор, основная цель которого уничтожение мира.-Тип релиза: BDRemux 1080p | CEE
Контейнер: MKV | Sample
Видео: 1920x1080 (16:9), 23.976 fps, High Profile 4.1 ~29975 kbps
Аудио 1: Russian 48 kHz, 5.1 DTS Audio, 768.00 kbps | Дубляж
Аудио 2: Ukrainian 48 kHz, 5.1 AC3 Dolby Digital Audio, 448.00 kbps | Дубляж
Аудио 3: English 48 kHz, 5.1 DTS-HD Master Audio, 3806.00 kbps | 48 kHz, 5.1 DTS Core, 1509.00 kbps | Original

Инфо
Формат : Matroska
Версия формата : Version 4 / Version 2
Размер файла : 24,8 Гбайт
Продолжительность : 1 ч. 41 м.
Режим общего битрейта : Переменный
Общий поток : 34,8 Мбит/сек
Название фильма : Дружинники / The Watch 2012
Дата кодирования : UTC 2014-11-03 17:38:59
Программа кодирования : mkvmerge v6.6.0 ('The Edge Of The In Between') built on Dec 1 2013 17:55:00
Библиотека кодирования : libebml v1.3.0 + libmatroska v1.4.1
Видео
Идентификатор : 1
Формат : AVC
Формат/Информация : Advanced Video Codec
Профиль формата : High@L4.1
Параметр CABAC формата : Да
Параметр ReFrames формата : 4 кадра
Идентификатор кодека : V_MPEG4/ISO/AVC
Продолжительность : 1 ч. 41 м.
Вид битрейта : Переменный
Максимальный битрейт : 31,0 Мбит/сек
Ширина : 1920 пикселей
Высота : 1080 пикселей
Соотношение сторон : 16:9
Режим частоты кадров : Постоянный
Частота кадров : 23,976 кадра/сек
Цветовое пространство : YUV
Субдискретизация насыщенности : 4:2:0
Битовая глубина : 8 бит
Тип развёртки : Прогрессивная
Заголовок : Blu-ray Remux CEE
Язык : English
Default : Да
Forced : Нет
Аудио #1
Идентификатор : 2
Формат : DTS
Формат/Информация : Digital Theater Systems
Режим : 16
Параметр Endianness формата : Big
Идентификатор кодека : A_DTS
Продолжительность : 1 ч. 41 м.
Вид битрейта : Постоянный
Битрейт : 768 Кбит/сек
Каналы : 6 каналов
Расположение каналов : Front: L C R, Side: L R, LFE
Частота : 48,0 КГц
Битовая глубина : 24 бит
Метод сжатия : С потерями
Размер потока : 560 Мбайт (2%)
Заголовок : Dub
Язык : Russian
Default : Да
Forced : Нет
Аудио #2
Идентификатор : 3
Формат : AC-3
Формат/Информация : Audio Coding 3
Расширение режима : CM (complete main)
Параметр Endianness формата : Big
Идентификатор кодека : A_AC3
Продолжительность : 1 ч. 41 м.
Вид битрейта : Постоянный
Битрейт : 448 Кбит/сек
Каналы : 6 каналов
Расположение каналов : Front: L C R, Side: L R, LFE
Частота : 48,0 КГц
Битовая глубина : 16 бит
Метод сжатия : С потерями
Размер потока : 327 Мбайт (1%)
Заголовок : Dub
Язык : Ukrainian
Default : Нет
Forced : Нет
Аудио #3
Идентификатор : 4
Формат : DTS
Формат/Информация : Digital Theater Systems
Профиль формата : MA / Core
Режим : 16
Параметр Endianness формата : Big
Идентификатор кодека : A_DTS
Продолжительность : 1 ч. 41 м.
Вид битрейта : Переменный
Битрейт : Неизвестно / 1509 Кбит/сек
Каналы : 6 каналов
Расположение каналов : Front: L C R, Side: L R, LFE
Частота : 48,0 КГц
Битовая глубина : 24 бит
Метод сжатия : Без потерь / Lossy
Заголовок : Original
Язык : English
Default : Нет
Forced : Нет
Текст #1
Идентификатор : 5
Формат : UTF-8
Идентификатор кодека : S_TEXT/UTF8
Идентификатор кодека/Информация : UTF-8 Plain Text
Заголовок : Forced
Язык : Russian
Default : Да
Forced : Нет
Текст #2
Идентификатор : 6
Формат : UTF-8
Идентификатор кодека : S_TEXT/UTF8
Идентификатор кодека/Информация : UTF-8 Plain Text
Заголовок : Full
Язык : Russian
Default : Нет
Forced : Нет
Текст #3
Идентификатор : 7
Формат : UTF-8
Идентификатор кодека : S_TEXT/UTF8
Идентификатор кодека/Информация : UTF-8 Plain Text
Заголовок : Full i
Язык : Russian
Default : Нет
Forced : Нет
Текст #4
Идентификатор : 8
Формат : UTF-8
Идентификатор кодека : S_TEXT/UTF8
Идентификатор кодека/Информация : UTF-8 Plain Text
Заголовок : Full
Язык : Ukrainian
Default : Нет
Forced : Нет
Текст #5
Идентификатор : 9
Формат : UTF-8
Идентификатор кодека : S_TEXT/UTF8
Идентификатор кодека/Информация : UTF-8 Plain Text
Заголовок : Full
Язык : English
Default : Нет
Forced : Нет
Текст #6
Идентификатор : 10
Формат : UTF-8
Идентификатор кодека : S_TEXT/UTF8
Идентификатор кодека/Информация : UTF-8 Plain Text
Заголовок : Full SDH
Язык : English
Default : Нет
Forced : Нет
Текст #7
Идентификатор : 11
Формат : UTF-8
Идентификатор кодека : S_TEXT/UTF8
Идентификатор кодека/Информация : UTF-8 Plain Text
Заголовок : Full SDH Color
Язык : English
Default : Нет
Forced : Нет
Меню
00:00:00.000 : en:00:00:00.000
00:04:17.257 : en:00:04:17.257
00:07:04.507 : en:00:07:04.507
00:09:58.807 : en:00:09:58.807
00:12:23.660 : en:00:12:23.660
00:18:01.747 : en:00:18:01.747
00:20:08.207 : en:00:20:08.207
00:22:10.538 : en:00:22:10.538
00:24:21.001 : en:00:24:21.001
00:29:13.627 : en:00:29:13.627
00:32:18.061 : en:00:32:18.061
00:33:15.911 : en:00:33:15.911
00:37:53.855 : en:00:37:53.855
00:39:25.238 : en:00:39:25.238
00:42:14.532 : en:00:42:14.532
00:47:40.149 : en:00:47:40.149
00:51:35.259 : en:00:51:35.259
00:55:15.020 : en:00:55:15.020
00:57:11.637 : en:00:57:11.637
00:59:47.000 : en:00:59:47.000
01:01:12.919 : en:01:01:12.919
01:05:16.663 : en:01:05:16.663
01:06:48.379 : en:01:06:48.379
01:09:24.160 : en:01:09:24.160
01:12:33.558 : en:01:12:33.558
01:14:26.045 : en:01:14:26.045
01:18:41.675 : en:01:18:41.675
01:20:22.026 : en:01:20:22.026
01:22:05.879 : en:01:22:05.879
01:25:33.295 : en:01:25:33.295
01:28:48.573 : en:01:28:48.573
01:35:36.814 : en:01:35:36.814
Скриншоты
Скачать

Скачать торрент!

Как скачивать? · Что такое торрент? · Рейтинг и ограничения

Сайт не распространяет и не хранит электронные версии произведений, а лишь предоставляет доступ к создаваемому пользователями каталогу ссылок на торрент-файлы, которые содержат только списки хеш-сумм

[Профиль] [ЛС]
Показать сообщения:    
Ответить на тему

Текущее время: Сегодня 12:07

Часовой пояс: GMT + 4



Вы не можете начинать темы
Вы не можете отвечать на сообщения
Вы не можете редактировать свои сообщения
Вы не можете удалять свои сообщения
Вы не можете голосовать в опросах
Вы не можете прикреплять файлы к сообщениям
Вы не можете скачивать файлы