3 дня на убийство / 3 Days to Kill (МакДжи / McG) [2014, США, Франция, боевик, триллер, драма, BDRip 1080p] [Extended Cut] [US] Dub + AVO (Гаврилов) + VO (Есарев) + Original (Eng) + Sub (Rus, Eng)

Ответить на тему
 
Автор Сообщение

user ®

Стаж: 7 лет 7 месяцев

Сообщений: 20008

Пост Пост: #1 от 06-Ноя-2014 02:40

[Цитировать]

3 дня на убийство / 3 Days to Kill
Страна: США, Франция, Греция, Россия
Производство: 3DTK, EuropaCorp, Feelgood Entertainment, Paradise/MGN, Relativity Media, Wonderland Sound and Vision
Жанр: боевик, триллер, драма
Год выпуска: 2014
Продолжительность: 02:02:18
Перевод 1: Профессиональный (дублированный) BD RUS
Перевод 2: Авторский (одноголосый закадровый) [А. Гаврилов]
Перевод 3: Одноголосый закадровый [Есарев]
Оригинальная аудиодорожка: английская
Cубтитры: русские (full, forced), английские (SDH)
Режиссер: МакДжи / McG
В ролях: Кевин Костнер, Эмбер Херд, Хейли Стейнфилд, Конни Нилсен, Рихард Заммель, Марк Андреони, Бруно Риччи, Эрик Эбуани, Микаэль Вандер-Мейрен
Описание: Умирающему агенту ЦРУ предлагают экспериментальное лекарство, которое может спасти его жизнь, в обмен на одно последнее задание…

Релиз: fanatus
Качество видео: BDRip 1080p
Исходник: 3.Days.To.Kill.2014.EXTENDED.1080p.BluRay.REMUX.DTS-HD.MA.5.1-PublicHD
Контейнер: MKV
Видео: MPEG-4 AVC, 13.0 Mbps , 1920x810 (2.40:1), 23.976 fps, 0.349 bit/pixel
Аудио 1: русский (DTS, 6 ch, 48 kHz, 1510 kbps) Dub (Blu-ray Rus)
Аудио 2: русский (DTS, 6 ch, 48 kHz, 1510 kbps) AVO (Gavrilov)
Аудио 3: русский (DTS, 6 ch, 48 kHz, 1510 kbps) VO (Esarev)
Аудио 2: английский (DTS, 6 ch, 48 kHz, 1510 kbps) Original
Формат субтитров: softsub (SRT)
Главы: есть
Примечание: EXTENDED - Расширенная версия! Длиннее театральной на ~5 минут. Расширенные сцены (в дубляже) переведены русскими субтитрами.
MediaInfo
General
Unique ID : 205256848528957521660127749972910149231 (0x9A6B07F5557719A58AE99E7F69D00E6F)
Complete name : E:\3_Days_To_Kill.(Extended).2014.x264.BDRip.1080p.fanatus.mkv
Format : Matroska
Format version : Version 2
File size : 16.3 GiB
Duration : 2h 2mn
Overall bit rate : 19.0 Mbps
Movie name : 3 Days To Kill (2014) - fanatus
Encoded date : UTC 2014-11-04 14:08:20
Writing application : mkvmerge v3.4.0 ('Rapunzel') сборка от May 15 2010 09:38:20
Writing library : libebml v0.8.0 + libmatroska v0.9.0
Attachment : Yes
Video
ID : 1
Format : AVC
Format/Info : Advanced Video Codec
Format profile : High@L4.1
Format settings, CABAC : Yes
Format settings, ReFrames : 5 frames
Codec ID : V_MPEG4/ISO/AVC
Duration : 2h 2mn
Bit rate : 13.0 Mbps
Width : 1 920 pixels
Height : 810 pixels
Display aspect ratio : 2.40:1
Frame rate : 23.976 fps
Color space : YUV
Chroma subsampling : 4:2:0
Bit depth : 8 bits
Scan type : Progressive
Bits/(Pixel*Frame) : 0.349
Stream size : 10.8 GiB (66%)
Title : BDRip(1080p)
Writing library : x264 core 142 r2431+42 c69a006 tMod [8-bit@all X86]
Encoding settings : cabac=1 / ref=5 / deblock=1:-3:-3 / analyse=0x3:0x113 / me=tesa / subme=11 / psy=1 / fade_compensate=0.00 / psy_rd=1.05:0.00 / mixed_ref=1 / me_range=64 / chroma_me=1 / trellis=2 / 8x8dct=1 / cqm=0 / deadzone=21,11 / fast_pskip=0 / chroma_qp_offset=-2 / threads=16 / lookahead_threads=2 / sliced_threads=0 / nr=0 / decimate=0 / interlaced=0 / bluray_compat=0 / constrained_intra=0 / fgo=0 / bframes=9 / b_pyramid=2 / b_adapt=2 / b_bias=0 / direct=3 / weightb=1 / open_gop=0 / weightp=2 / keyint=240 / keyint_min=23 / scenecut=40 / intra_refresh=0 / rc_lookahead=240 / rc=2pass / mbtree=1 / bitrate=13000 / ratetol=1.0 / qcomp=0.75 / qpmin=0:0:0 / qpmax=69:69:69 / qpstep=4 / cplxblur=20.0 / qblur=0.5 / vbv_maxrate=50000 / vbv_bufsize=62500 / nal_hrd=none / filler=0 / ip_ratio=1.40 / aq=4:0.85 / aq-sensitivity=10.00 / aq-factor=1.00:1.00:1.00 / aq2=0 / aq3=0
Language : English
Default : Yes
Forced : No
Audio #1
ID : 2
Format : DTS
Format/Info : Digital Theater Systems
Codec ID : A_DTS
Duration : 2h 2mn
Bit rate mode : Constant
Bit rate : 1 510 Kbps
Channel(s) : 6 channels
Channel positions : Front: L C R, Side: L R, LFE
Sampling rate : 48.0 KHz
Bit depth : 24 bits
Compression mode : Lossy
Stream size : 1.29 GiB (8%)
Title : Dub (Blu-ray Rus)
Language : Russian
Default : Yes
Forced : No
Audio #2
ID : 3
Format : DTS
Format/Info : Digital Theater Systems
Codec ID : A_DTS
Duration : 2h 2mn
Bit rate mode : Constant
Bit rate : 1 510 Kbps
Channel(s) : 6 channels
Channel positions : Front: L C R, Side: L R, LFE
Sampling rate : 48.0 KHz
Bit depth : 24 bits
Compression mode : Lossy
Stream size : 1.29 GiB (8%)
Title : AVO (Gavrilov)
Language : Russian
Default : No
Forced : No
Audio #3
ID : 4
Format : DTS
Format/Info : Digital Theater Systems
Codec ID : A_DTS
Duration : 2h 2mn
Bit rate mode : Constant
Bit rate : 1 510 Kbps
Channel(s) : 6 channels
Channel positions : Front: L C R, Side: L R, LFE
Sampling rate : 48.0 KHz
Bit depth : 24 bits
Compression mode : Lossy
Stream size : 1.29 GiB (8%)
Title : VO (Esarev)
Language : Russian
Default : No
Forced : No
Audio #4
ID : 5
Format : DTS
Format/Info : Digital Theater Systems
Codec ID : A_DTS
Duration : 2h 2mn
Bit rate mode : Constant
Bit rate : 1 510 Kbps
Channel(s) : 6 channels
Channel positions : Front: L C R, Side: L R, LFE
Sampling rate : 48.0 KHz
Bit depth : 24 bits
Compression mode : Lossy
Stream size : 1.29 GiB (8%)
Title : Original
Language : English
Default : No
Forced : No
Text #1
ID : 6
Format : UTF-8
Codec ID : S_TEXT/UTF8
Codec ID/Info : UTF-8 Plain Text
Title : Forced
Language : Russian
Default : Yes
Forced : Yes
Text #2
ID : 7
Format : UTF-8
Codec ID : S_TEXT/UTF8
Codec ID/Info : UTF-8 Plain Text
Title : Full
Language : Russian
Default : No
Forced : No
Text #3
ID : 8
Format : UTF-8
Codec ID : S_TEXT/UTF8
Codec ID/Info : UTF-8 Plain Text
Title : SDH
Language : English
Default : No
Forced : No
Menu
00:00:00.000 : en:Chapter 1
00:03:35.131 : en:Chapter 2
00:06:58.543 : en:Chapter 3
00:10:56.572 : en:Chapter 4
00:16:00.709 : en:Chapter 5
00:20:51.708 : en:Chapter 6
00:25:05.962 : en:Chapter 7
00:29:24.345 : en:Chapter 8
00:34:20.391 : en:Chapter 9
00:37:46.806 : en:Chapter 10
00:40:27.299 : en:Chapter 11
00:44:05.225 : en:Chapter 12
00:49:24.794 : en:Chapter 13
00:53:16.443 : en:Chapter 14
00:57:40.873 : en:Chapter 15
01:08:28.395 : en:Chapter 16
01:13:37.621 : en:Chapter 17
01:19:51.828 : en:Chapter 18
01:25:59.070 : en:Chapter 19
01:32:28.167 : en:Chapter 20
01:39:10.569 : en:Chapter 21
01:42:49.412 : en:Chapter 22
01:51:49.452 : en:Chapter 23
01:54:55.596 : en:Chapter 24
02:02:17.538 : en:Chapter 25
x264 [info]
x264 [info]: 1920x810p 1:1 @ 24000/1001 fps (cfr)
x264 [info]: frame I:1971 Avg QP:12.32 size:250811
x264 [info]: frame P:48500 Avg QP:15.45 size: 99456
x264 [info]: frame B:125484 Avg QP:16.63 size: 52593
x264 [info]: consecutive B-frames: 5.8% 8.1% 8.6% 36.3% 11.6% 18.1% 5.1% 5.2% 0.6% 0.5%
x264 [info]: mb I I16..4: 7.2% 75.3% 17.4%
x264 [info]: mb P I16..4: 1.9% 19.7% 1.6% P16..4: 23.5% 29.6% 12.9% 0.0% 0.0% skip:10.7%
x264 [info]: mb B I16..4: 0.2% 3.7% 0.2% B16..8: 29.8% 26.0% 7.7% direct: 9.2% skip:23.2% L0:43.2% L1:41.0% BI:15.8%
x264 [info]: 8x8 transform intra:85.6% inter:57.2%
x264 [info]: direct mvs spatial:99.0% temporal:1.0%
x264 [info]: coded y,uvDC,uvAC intra: 87.7% 88.6% 72.1% inter: 42.4% 39.1% 14.8%
x264 [info]: i16 v,h,dc,p: 37% 14% 4% 45%
x264 [info]: i8 v,h,dc,ddl,ddr,vr,hd,vl,hu: 10% 9% 13% 9% 12% 11% 11% 11% 13%
x264 [info]: i4 v,h,dc,ddl,ddr,vr,hd,vl,hu: 14% 11% 9% 8% 13% 12% 12% 10% 11%
x264 [info]: i8c dc,h,v,p: 45% 22% 18% 14%
x264 [info]: Weighted P-Frames: Y:2.9% UV:2.0%
x264 [info]: ref P L0: 54.7% 9.6% 20.0% 7.8% 7.0% 0.8% 0.0%
x264 [info]: ref B L0: 83.2% 12.2% 3.6% 1.0%
x264 [info]: ref B L1: 94.6% 5.4%
x264 [info]: kb/s:12991.25
x264 [info]: encoded 175955 frames, 0.8220 fps, 12991.25 kb/s, 11365 MB
x264 [info]: ended at Mon Jul 28 14:47:05 2014
x264 [info]: encoding duration 59:27:43
Скриншот c названием фильма Скриншоты Source vs Rip
Скачать

Скачать торрент!

Как скачивать? · Что такое торрент? · Рейтинг и ограничения

Сайт не распространяет и не хранит электронные версии произведений, а лишь предоставляет доступ к создаваемому пользователями каталогу ссылок на торрент-файлы, которые содержат только списки хеш-сумм

[Профиль] [ЛС]
Показать сообщения:    
Ответить на тему

Текущее время: Сегодня 00:23

Часовой пояс: GMT + 4



Вы не можете начинать темы
Вы не можете отвечать на сообщения
Вы не можете редактировать свои сообщения
Вы не можете удалять свои сообщения
Вы не можете голосовать в опросах
Вы не можете прикреплять файлы к сообщениям
Вы не можете скачивать файлы