А вот и она / And So It Goes (Роб Райнер / Rob Reiner) [2014, США, драма, мелодрама, комедия, BDRip] Dub

Ответить на тему
 
Автор Сообщение

user ®

Стаж: 7 лет 7 месяцев

Сообщений: 20008

Пост Пост: #1 от 06-Ноя-2014 02:40

[Цитировать]

А вот и она / And So It Goes
«Миллион причин не любить Орена. Спроси любого»
- Страна: США
Жанр: драма, мелодрама, комедия
Год выпуска: 2014
Продолжительность: 01:29:38
Перевод: Профессиональный (дублированный)
Cубтитры: нет
Оригинальная аудиодорожка: нет-Режиссер: Роб Райнер / Rob Reiner
Сценарий: Марк Эндрус / Mark Andrus
Продюсер: Марк Дэймон / Mark Damon, Алан Грейсман / Alan Greisman
Оператор: Рид Морано / Reed Morano
Композитор: Марк Шэймен / Marc Shaiman-В ролях:
Майкл Дуглас (Oren Little), Дайан Китон (Leah), Стерлинг Джеринс (Sarah), Энни Пэррис (Kate), Остин Лайзи (Kyle), Майкл Терра (Peter), Симпкинс Сойер (Dylan), Максвелл Симкинс (Caleb), Морис Джонс (Ray), Йайа ДаКоста (Kennedy).-Бюджет: $30 000 000
Сборы в США: $15 160 801
Сборы в мире: $22 405 801-Мировая премьера: 10 июля 2014
Премьера (РФ): 17 июля 2014, «Парадиз»
Релиз на DVD: 14 октября 2014, «Парадиз / Активижен»
Релиз на Blu-ray: 14 октября 2014, «Парадиз / Активижен»
-Описание:
Жизнь закоренелого эгоиста в одночасье меняется, когда он вдруг знакомится со своей внучкой, о существовании которой даже не подозревал.-Рейтинг
kinopoisk.ru: 6.343 (2165)
imdb.com: 5.50 (1973)
MPAA: PG-13 - Детям до 13 лет просмотр не желателен-Качество видео: [url=http://***/forum/viewtopic.php?t=4838207]BDRip[/url] | thx: Sh@G
Формат видео: AVI ///СОВМЕСТИМО С БЫТОВЫМИ ПЛЕЕРАМИ/// → //SAMPLE//
Видео: 720x320 (2.25:1), 25.000 fps, XviD build 65 ~1877 kbps avg, 0.33 bit/pixel
Аудио: 48.0 kHz, AC3 Dolby Digital, 3/2 (L,C,R,l,r) + LFE ch, ~448.00 kbps avg | DUB
Размер: 1497.28 Mb (1/3 DVD-R)
-MediaInfo
Общее
Полное имя : A:\Фильмы\And So It Goes.2014.DUAL.BDRip.XviD.1,46Gb.AC3.avi
Формат : AVI
Формат/Информация : Audio Video Interleave
Размер файла : 1,46 Гбайт
Продолжительность : 1 ч. 29 м.
Общий поток : 2335 Кбит/сек
Программа кодирования : VirtualDubMod 1.5.10.3 | www.virtualdub-fr.org || (build 2550/release)
Библиотека кодирования : VirtualDubMod build 2550/release
Видео
Идентификатор : 0
Формат : MPEG-4 Visual
Профиль формата : Advanced Simple@L5
Параметр BVOP формата : 1
Параметр QPel формата : Нет
Параметр GMC формата : Без точки перехода
Параметр матрицы формата : Выборочная
Идентификатор кодека : XVID
Идентификатор кодека/Подсказка : XviD
Продолжительность : 1 ч. 29 м.
Битрейт : 1877 Кбит/сек
Ширина : 720 пикселей
Высота : 320 пикселей
Соотношение сторон : 2,25:1
Частота кадров : 25,000 кадров/сек
Цветовое пространство : YUV
Субдискретизация насыщенности : 4:2:0
Битовая глубина : 8 бит
Тип развёртки : Прогрессивная
Метод сжатия : С потерями
Бит/(Пиксели*Кадры) : 0.326
Размер потока : 1,18 Гбайт (80%)
Библиотека кодирования : XviD 65
Аудио
Идентификатор : 1
Формат : AC-3
Формат/Информация : Audio Coding 3
Расширение режима : CM (complete main)
Параметр Endianness формата : Big
Идентификатор кодека : 2000
Продолжительность : 1 ч. 29 м.
Вид битрейта : Постоянный
Битрейт : 448 Кбит/сек
Каналы : 6 каналов
Расположение каналов : Front: L C R, Side: L R, LFE
Частота : 48,0 КГц
Битовая глубина : 16 бит
Метод сжатия : С потерями
Размер потока : 287 Мбайт (19%)
Выравнивание : Соединение по промежуткам
Продолжительность промежутка : 40 мс. (1,00 видеокадр)
Время предзагрузки промежутка : 512 мс.
Скриншот c названием фильма Comparison
[url=http://***/forum/viewtopic.php?t=4815624]http://***/forum/viewtopic.php?t=4815624[/url]
http://screenshotcomparison.com/comparison/98898/picture:6
Скриншоты
Скачать

Скачать торрент!

Как скачивать? · Что такое торрент? · Рейтинг и ограничения

Сайт не распространяет и не хранит электронные версии произведений, а лишь предоставляет доступ к создаваемому пользователями каталогу ссылок на торрент-файлы, которые содержат только списки хеш-сумм

[Профиль] [ЛС]
Показать сообщения:    
Ответить на тему

Текущее время: Сегодня 05:05

Часовой пояс: GMT + 4



Вы не можете начинать темы
Вы не можете отвечать на сообщения
Вы не можете редактировать свои сообщения
Вы не можете удалять свои сообщения
Вы не можете голосовать в опросах
Вы не можете прикреплять файлы к сообщениям
Вы не можете скачивать файлы