Джинкс!!! / Jinx!!! (Наото Кумазава / Naoto Kumazawa) [2013, Япония, Драма, Мелодрама, HDRip] Sub Rus

Ответить на тему
 
Автор Сообщение

user ®

Стаж: 13 лет

Сообщений: 15071

Пост Пост: #1 от 05-Ноя-2014 15:05

[Цитировать]

Джинкс!!! / Jinx!!!
Страна: Япония
Жанр: Драма, Мелодрама
Год выпуска: 2013
Продолжительность: 02:02:55
Перевод: Субтитры 7Stars
Cубтитры: русские
Оригинальная аудиодорожка: Японский
Режиссер: Наото Кумазава / Naoto Kumazawa
В ролях: Куруми Шимицу
Кенто Ямадзаки
Хёмин
Мотоки Очиай
Айри Матсуяма
Санаэ Мията
Кадзуя Такаши
Описание: Каэде и Юсуке любят друг друга, но они не могут честно выразить свои чувства. ДжиХо, студентка по обмену из Южной Кореи, знакомится с Каэде и Юсуке в университете. ДжиХо замечает чувства между ними, поэтому она добавляет немного корейской романтики, чтобы они наконец поняли, что чувствуют друг к другу.
Доп. информация: Перевод осуществлен Фансаб Гуппой 7Stars
Сэмпл: http://multi-up.com/1011084
Качество видео: HDRip
Формат видео: MP4
Видео: AVC,и1280х720, 16:9, 25,000 кадров/сек, 2084 Кбит/сек
Аудио: AAC, 44.1 КГц, 99.1 Кбит/сек, 2 канала Front: L R
Формат субтитров: hardsub (неотключаемые)
MediaInfo
Полное имя : G:\Фильмы\4. Драма - Мелодрама\Jinx!!! (Джинкс!!!) 2013.mp4
Формат : MPEG-4
Профиль формата : Base Media
Идентификатор кодека : isom
Размер файла : 1,88 Гбайт
Продолжительность : 2 ч. 2 м.
Режим общего битрейта : Переменный
Общий поток : 2187 Кбит/сек
Дата кодирования : UTC 2014-05-18 19:08:04
Дата пометки : UTC 2014-05-18 19:08:04
Видео
Идентификатор : 1
Формат : AVC
Формат/Информация : Advanced Video Codec
Профиль формата : High@L3.1
Параметр CABAC формата : Да
Параметр ReFrames формата : 4 кадра
Идентификатор кодека : avc1
Идентификатор кодека/Информация : Advanced Video Coding
Продолжительность : 2 ч. 2 м.
Битрейт : 2084 Кбит/сек
Максимальный битрейт : 7538 Кбит/сек
Ширина : 1280 пикселей
Высота : 720 пикселей
Соотношение сторон : 16:9
Режим частоты кадров : Постоянный
Частота кадров : 25,000 кадров/сек
Цветовое пространство : YUV
Субдискретизация насыщенности : 4:2:0
Битовая глубина : 8 бит
Тип развёртки : Прогрессивная
Бит/(Пиксели*Кадры) : 0.090
Размер потока : 1,79 Гбайт (95%)
Библиотека кодирования : x264 core 130 r2273 b3065e6
Настройки программы : cabac=1 / ref=2 / deblock=1:-1:-1 / analyse=0x3:0x113 / me=hex / subme=6 / psy=1 / psy_rd=1.00:0.00 / mixed_ref=1 / me_range=16 / chroma_me=1 / trellis=1 / 8x8dct=1 / cqm=0 / deadzone=21,11 / fast_pskip=1 / chroma_qp_offset=-2 / threads=6 / lookahead_threads=1 / sliced_threads=0 / nr=0 / decimate=1 / interlaced=0 / bluray_compat=0 / constrained_intra=0 / bframes=3 / b_pyramid=2 / b_adapt=1 / b_bias=0 / direct=1 / weightb=1 / open_gop=0 / weightp=1 / keyint=250 / keyint_min=25 / scenecut=40 / intra_refresh=0 / rc_lookahead=30 / rc=crf / mbtree=1 / crf=18.0 / qcomp=0.60 / qpmin=0 / qpmax=69 / qpstep=4 / ip_ratio=1.40 / aq=1:1.00
Дата кодирования : UTC 2014-05-18 19:08:04
Дата пометки : UTC 2014-05-18 19:12:35
Аудио
Идентификатор : 2
Формат : AAC
Формат/Информация : Advanced Audio Codec
Профиль формата : LC
Идентификатор кодека : 40
Продолжительность : 2 ч. 2 м.
Вид битрейта : Переменный
Битрейт : 99,1 Кбит/сек
Максимальный битрейт : 124 Кбит/сек
Каналы : 2 канала
Расположение каналов : Front: L R
Частота : 44,1 КГц
Метод сжатия : С потерями
Размер потока : 87,2 Мбайт (5%)
Дата кодирования : UTC 2014-05-18 19:12:25
Дата пометки : UTC 2014-05-18 19:12:35
Скриншот c названием фильма Скриншоты
Скачать

Скачать торрент! Джинкс!!! / Jinx!!! (Наото Кумазава / Naoto Kumazawa) [2013, Япония, Драма, Мелодрама, HDRip] Sub Rus

Как скачивать? · Что такое торрент? · Рейтинг и ограничения

Сайт не распространяет и не хранит электронные версии произведений, а лишь предоставляет доступ к создаваемому пользователями каталогу ссылок на торрент-файлы, которые содержат только списки хеш-сумм

[Профиль] [ЛС]
Показать сообщения:    
Ответить на тему

Текущее время: Сегодня 12:31

Часовой пояс: GMT + 4



Вы не можете начинать темы
Вы не можете отвечать на сообщения
Вы не можете редактировать свои сообщения
Вы не можете удалять свои сообщения
Вы не можете голосовать в опросах
Вы не можете прикреплять файлы к сообщениям
Вы не можете скачивать файлы