Добро пожаловать в Нью-Йорк / Welcome to New York (Абель Феррара / Abel Ferrara) [2014, США, драма, BDRip] MVO R5

Ответить на тему
 
Автор Сообщение

user ®

Стаж: 7 лет 7 месяцев

Сообщений: 20008

Пост Пост: #1 от 05-Ноя-2014 15:05

[Цитировать]

Добро пожаловать в Нью-Йорк / Welcome to New York -Страна: США / Belladonna Productions
Жанр: драма
Год выпуска: 2014
Продолжительность: 01:49:30
Перевод: Профессиональный (многоголосый закадровый) лицензия R5
Cубтитры: нет
Режиссёр: Абель Феррара / Abel Ferrara
В ролях: Жерар Депардье, Жаклин Биссет, Мари Мут, Пол Кальдерон, Пол Хипп, Памела Афеси, Крис Зойс, Шэнин Ли, Дрена Де Ниро, Эми Фергюсон.
Описание: Один из самых влиятельных людей на планете, претендент на пост Президента Франции в одночасье становится жертвой собственных пороков. Он одержим бешеным и необузданным сексуальным голодом. В Нью-Йорке его обвиняют в сексуальных домогательствах.-Рейтинг
imdb.com: 5.20 (999)
kinopoisk.ru: 5.196 (533)
-Сэмпл: http://multi-up.com/1011165-Качество видео: BDRip [Welcome.to.New.York.2014.1080p.Blu-rayRemux / kinozal]
Формат видео: AVI
Видео: XviD build 65, 704x400 (16:9), 23.976 fps, ~1457 kbps avg, 0.216 bit/pixel
Аудио: 48 kHz, AC3 Dolby Digital, 3/2 (L,C,R,l,r) + LFE ch, ~448 kbps avg (MVO)
-MediaInfo
Общее
Полное имя : D:\Welcome.to.New.York.2014.MVO.BDRip.1,46Gb.XviD.AC3.avi
Формат : AVI
Формат/Информация : Audio Video Interleave
Размер файла : 1,46 Гбайт
Продолжительность : 1 ч. 49 м.
Общий поток : 1914 Кбит/сек
Название фильма : Welcome to New York 2014.
Режиссёр : Abel Ferrara
Дата записи : 05.11.2014
Программа кодирования : VirtualDubModRus 1.5.10.2 (build 2542/release)
Библиотека кодирования : VirtualDubMod build 2542/release
Правообладатель : ***
Примечание : BDRip by MooN_WalkeR
Видео
Идентификатор : 0
Формат : MPEG-4 Visual
Профиль формата : Advanced Simple@L5
Параметр BVOP формата : 1
Параметр QPel формата : Нет
Параметр GMC формата : Без точки перехода
Параметр матрицы формата : Выборочная
Идентификатор кодека : XVID
Идентификатор кодека/Подсказка : XviD
Продолжительность : 1 ч. 49 м.
Битрейт : 1457 Кбит/сек
Ширина : 704 пикселя
Высота : 400 пикселей
Соотношение сторон : 16:9
Частота кадров : 23,976 кадра/сек
Цветовое пространство : YUV
Субдискретизация насыщенности : 4:2:0
Битовая глубина : 8 бит
Тип развёртки : Прогрессивная
Метод сжатия : С потерями
Бит/(Пиксели*Кадры) : 0.216
Размер потока : 1,11 Гбайт (76%)
Библиотека кодирования : XviD 65
Аудио
Идентификатор : 1
Формат : AC-3
Формат/Информация : Audio Coding 3
Расширение режима : CM (complete main)
Параметр Endianness формата : Big
Идентификатор кодека : 2000
Продолжительность : 1 ч. 49 м.
Вид битрейта : Постоянный
Битрейт : 448 Кбит/сек
Каналы : 6 каналов
Расположение каналов : Front: L C R, Side: L R, LFE
Частота : 48,0 КГц
Битовая глубина : 16 бит
Метод сжатия : С потерями
Размер потока : 351 Мбайт (23%)
Выравнивание : Разделение по промежуткам
Продолжительность промежутка : 42 мс. (1,00 видеокадр)
Время предзагрузки промежутка : 500 мс.
Заголовок : MVO R5
Скриншоты
Скачать

Скачать торрент!

Как скачивать? · Что такое торрент? · Рейтинг и ограничения

Сайт не распространяет и не хранит электронные версии произведений, а лишь предоставляет доступ к создаваемому пользователями каталогу ссылок на торрент-файлы, которые содержат только списки хеш-сумм

[Профиль] [ЛС]
Показать сообщения:    
Ответить на тему

Текущее время: Сегодня 03:48

Часовой пояс: GMT + 4



Вы не можете начинать темы
Вы не можете отвечать на сообщения
Вы не можете редактировать свои сообщения
Вы не можете удалять свои сообщения
Вы не можете голосовать в опросах
Вы не можете прикреплять файлы к сообщениям
Вы не можете скачивать файлы