Город, который боялся заката / The Town That Dreaded Sundown (Чарлз Б. Пирс / Charles B. Pierce) [1976, США, триллер, BDRip 720p] DVO (НТВ) + Sub Rus, Eng + Original Eng

Ответить на тему
 
Автор Сообщение

user ®

Стаж: 7 лет 7 месяцев

Сообщений: 20008

Пост Пост: #1 от 05-Ноя-2014 11:55

[Цитировать]

Город, который боялся заката / The Town That Dreaded Sundown
Страна: США
Студия: American International Pictures
Жанр: триллер
Год выпуска: 1976
Продолжительность: 01:29:54
Перевод: Профессиональный (двухголосый закадровый) НТВ
Cубтитры: русские + английские (для слабослышащих)
Оригинальная аудиодорожка: английский
Режиссер: Чарлз Б. Пирс / Charles B. Pierce
В ролях: Синди Батлер, Рой Ли Браун, Роберт Аквино, Рик Хилдрет, Мисти Уэст, Майк Хэкуорт, Майк Даунс, Кэролин Морлэнд, Кристин Эллсворт, Доун Уэллс, Джо Каталанотто, Джимми Клем, Джейсон Дарнелл, Билл Дитц, Бен Джонсон, Джим Ситти, Эрл Э. Смит, Эндрю Прайн, Чарлз Б. Пирс, Стив Лайонс
Описание: Действие фильма разворачивается в маленьком городке, размеренную жизнь которого нарушает жестокий маньяк, нападающий на влюблённые пары. Двум жертвам едва удалось выжить, но жители городка были жутко напуганы, так как не привыкли к столь явному проявлению насилия. Горожане буквально обезумели, опасаясь, что преступник нанесёт ещё один удар. И точно, двадцать один день спустя, двое влюблённых были найдены при аналогичных обстоятельствах, только теперь они были мертвы.
Основано на реальных событиях.
Доп. информация: В связи с выходом ремейка [url=http://***/forum/viewtopic.php?t=4856892]http://***/forum/viewtopic.php?t=4856892[/url] имеет смысл посмотреть оригинал в хорошем качестве.
Сэмпл: http://multi-up.com/1009853
Тип релиза: BDRip 720p
Контейнер: MKV
Видео: x264, Advanced Video Codec High@L4.1, NTSC, 1280х546, 7200 Кбит/сек, 23,976 кадра/сек
Аудио: Русский, Ac3 2.0, 48000 Гц, 192 Кбит/сек
Аудио 2: Английский ,DTS 2.0, 48000 Гц, 1509 Кбит/сек
Формат субтитров: softsub (SRT)
MediaInfo
Уникальный идентификатор : 249674949964391634281015713668251198406 (0xBBD5A570A38401DEB86BFB495A3F23C6)
Полное имя : D:\Demux\Gorod.kotoryj.bojalsja.zakata.mkv
Формат : Matroska
Версия формата : Version 4 / Version 2
Размер файла : 5,59 Гбайт
Продолжительность : 1 ч. 29 м.
Общий поток : 8900 Кбит/сек
Название фильма : The Town That Dreaded Sundown (1976) - Release for HDCLUB
Дата кодирования : UTC 2014-10-30 22:40:02
Программа кодирования : mkvmerge v7.3.0 ('Nouages') 64bit built on Oct 22 2014 18:53:34
Библиотека кодирования : libebml v1.3.0 + libmatroska v1.4.1
DURATION : 01:26:57.045000000
NUMBER_OF_FRAMES : 634
NUMBER_OF_BYTES : 57673
_STATISTICS_WRITING_APP : mkvmerge v7.3.0 ('Nouages') 64bit built on Oct 22 2014 18:53:34
_STATISTICS_WRITING_DATE_UTC : 2014-10-30 22:40:02
_STATISTICS_TAGS : BPS DURATION NUMBER_OF_FRAMES NUMBER_OF_BYTES
Видео
Идентификатор : 1
Формат : AVC
Формат/Информация : Advanced Video Codec
Профиль формата : High@L4.1
Параметр CABAC формата : Да
Параметр ReFrames формата : 6 кадров
Идентификатор кодека : V_MPEG4/ISO/AVC
Продолжительность : 1 ч. 29 м.
Битрейт : 7200 Кбит/сек
Ширина : 1280 пикселей
Высота : 546 пикселей
Соотношение сторон : 2,35:1
Режим частоты кадров : Постоянный
Частота кадров : 23,976 кадра/сек
Цветовое пространство : YUV
Субдискретизация насыщенности : 4:2:0
Битовая глубина : 8 бит
Тип развёртки : Прогрессивная
Бит/(Пиксели*Кадры) : 0.430
Размер потока : 4,41 Гбайт (79%)
Библиотека кодирования : x264 core 130 r2273 b3065e6
Настройки программы : cabac=1 / ref=6 / deblock=1:-3:-3 / analyse=0x3:0x133 / me=umh / subme=11 / psy=1 / psy_rd=1.05:0.00 / mixed_ref=1 / me_range=48 / chroma_me=1 / trellis=2 / 8x8dct=1 / cqm=0 / deadzone=21,11 / fast_pskip=0 / chroma_qp_offset=-2 / threads=12 / lookahead_threads=2 / sliced_threads=0 / nr=0 / decimate=1 / interlaced=0 / bluray_compat=0 / constrained_intra=0 / bframes=9 / b_pyramid=2 / b_adapt=2 / b_bias=0 / direct=3 / weightb=1 / open_gop=0 / weightp=2 / keyint=250 / keyint_min=23 / scenecut=40 / intra_refresh=0 / rc_lookahead=40 / rc=2pass / mbtree=0 / bitrate=7200 / ratetol=1.0 / qcomp=0.60 / qpmin=0 / qpmax=69 / qpstep=4 / cplxblur=20.0 / qblur=0.5 / vbv_maxrate=62500 / vbv_bufsize=78125 / nal_hrd=none / ip_ratio=1.40 / pb_ratio=1.30 / aq=1:0.80
Язык : English
Default : Да
Forced : Нет
DURATION : 01:29:53.931000000
NUMBER_OF_FRAMES : 129325
NUMBER_OF_BYTES : 4851889664
_STATISTICS_WRITING_APP : mkvmerge v7.3.0 ('Nouages') 64bit built on Oct 22 2014 18:53:34
_STATISTICS_WRITING_DATE_UTC : 2014-10-30 22:40:02
_STATISTICS_TAGS : BPS DURATION NUMBER_OF_FRAMES NUMBER_OF_BYTES
Аудио #1
Идентификатор : 2
Формат : AC-3
Формат/Информация : Audio Coding 3
Расширение режима : CM (complete main)
Параметр Endianness формата : Big
Идентификатор кодека : A_AC3
Продолжительность : 1 ч. 29 м.
Вид битрейта : Постоянный
Битрейт : 192 Кбит/сек
Каналы : 2 канала
Расположение каналов : Front: L R
Частота : 48,0 КГц
Битовая глубина : 16 бит
Метод сжатия : С потерями
Размер потока : 123 Мбайт (2%)
Заголовок : |Двухголосый закадровый, НТВ|
Язык : Russian
Default : Да
Forced : Нет
Аудио #2
Идентификатор : 3
Формат : DTS
Формат/Информация : Digital Theater Systems
Режим : 16
Параметр Endianness формата : Big
Идентификатор кодека : A_DTS
Продолжительность : 1 ч. 29 м.
Вид битрейта : Постоянный
Битрейт : 1509 Кбит/сек
Каналы : 2 канала
Расположение каналов : Front: L R
Частота : 48,0 КГц
Битовая глубина : 24 бит
Метод сжатия : С потерями
Размер потока : 970 Мбайт (17%)
Язык : English
Default : Нет
Forced : Нет
Текст #1
Идентификатор : 4
Формат : UTF-8
Идентификатор кодека : S_TEXT/UTF8
Идентификатор кодека/Информация : UTF-8 Plain Text
Язык : Russian
Default : Да
Forced : Нет
Текст #2
Идентификатор : 5
Формат : UTF-8
Идентификатор кодека : S_TEXT/UTF8
Идентификатор кодека/Информация : UTF-8 Plain Text
Язык : English
Default : Нет
Forced : Нет
Меню
00:00:00.000 : :00:00:00.000
00:09:01.541 : :00:09:01.541
00:15:48.614 : :00:15:48.614
00:22:06.950 : :00:22:06.950
00:31:33.308 : :00:31:33.308
00:36:50.833 : :00:36:50.833
00:42:12.154 : :00:42:12.154
00:52:20.762 : :00:52:20.762
00:58:50.151 : :00:58:50.151
01:05:30.551 : :01:05:30.551
01:14:54.489 : :01:14:54.489
01:24:33.693 : :01:24:33.693
Скриншоты
Скачать

Скачать торрент!

Как скачивать? · Что такое торрент? · Рейтинг и ограничения

Сайт не распространяет и не хранит электронные версии произведений, а лишь предоставляет доступ к создаваемому пользователями каталогу ссылок на торрент-файлы, которые содержат только списки хеш-сумм

[Профиль] [ЛС]
Показать сообщения:    
Ответить на тему

Текущее время: Сегодня 07:04

Часовой пояс: GMT + 4



Вы не можете начинать темы
Вы не можете отвечать на сообщения
Вы не можете редактировать свои сообщения
Вы не можете удалять свои сообщения
Вы не можете голосовать в опросах
Вы не можете прикреплять файлы к сообщениям
Вы не можете скачивать файлы