Минин и Пожарский [Полная версия] (Всеволод Пудовкин, Михаил Доллер) [1939, Историко-биографический, DVDRip]

Ответить на тему
 
Автор Сообщение

user ®

Стаж: 7 лет 7 месяцев

Сообщений: 20008

Пост Пост: #1 от 05-Ноя-2014 05:35

[Цитировать]

Минин и Пожарский [Полная версия]
ПОСВЯЩАЕТСЯ ДНЮ ЕДИНСТВА и СОГЛАСИЯ.
НЕПОБЕДИМОЙ СИЛЕ ДУХА и БЕСПРИМЕРНОМУ МУЖЕСТВУ РУССКОГО НАРОДА

Жанр: Историко-биографический
Страна: СССР
Студия: Мосфильм
Год выпуска: 1939
Продолжительность: 02:04:37.359 (186934 frames)
Режиссёр: Всеволод Пудовкин , Михаил Доллер
В ролях:
Александр Ханов … Кузьма Минин
Борис Ливанов … князь Пожарский
Борис Чирков … Роман
Анатолий Горюнов … гетман Ходкевич
Лев Свердлин … Григорий Орлов, боярин
Владимир Москвин … стремянной Степан Хорошев
Сергей Комаров … князь Трубецкой
Евгений Калужский … Иван Заруцкий
Лев Фенин … поручик Шмидт
Михаил Астангов … король Сигизмунд
Иван Чувелёв … Васька
Владимир Дорофеев … Нелюб Овцын
Евгений Гуров … Де-Малло
Елизавета Кузюрина … жена Пожарского
Нина Никитина … Палашка
Николай Никитич … Фёдор Зотов
Пётр Соболевский … Аноха
Описание: По повести Виктора Шкловского «Русские в начале XVII века».
Начало XVII века. Уже шестой год русская земля под игом интервенции. Осенью 1610 года польские паны обманом захватили Кремль и пытались прорваться на север Руси. Повсюду вспыхивали восстания, но хорошо вооруженные интервенты разбивали разрозненные крестьянские отряды. Освободительное движение возглавили нижегородский купец Кузьма Минин и князь Дмитрий Пожарский…
Доп. информация: Релиз:
Автор рипа: pmv
Исходник DVD5 - [url=http://***/forum/viewtopic.php?t=4496014]http://***/forum/viewtopic.php?t=4496014[/url] - от AVV_UA , за что ему большое Спасибо!
IMDb = 7,4/10 from 37 users - http://www.imdb.com/title/tt0031654/
Кинопоиск = 6.804 (201) - http://www.kinopoisk.ru/film/46641
В данной раздаче представлена полная версия, которая идёт на 22 минуты дольше, чем версия, «восстановленная» в 1963 году.
ПРОСЬБА к СКАЧАВШИМ. НЕ УХОДИТЕ С РАЗДАЧИ, ПОМОГИТЕ ДРУГИМ СКАЧАТЬ!!!
Качество видео: DVDRip
Формат видео: AVI
Видео: 704x544 (1.29:1), 25 fps, XviD build 73 ~1535 kbps avg, 0.16 bit/pixel
Аудио: 48 kHz, MPEG Layer 3, 1 ch, ~96.00 kbps avg
Сэмпл MediaInfo
General
Complete name : D:\torrents\Минин и Пожарский (1939, full_vers).avi
Format : AVI
Format/Info : Audio Video Interleave
File size : 1.43 GiB
Duration : 2h 4mn
Overall bit rate : 1 641 Kbps
Writing library : VirtualDub build 35576/release
Video
ID : 0
Format : MPEG-4 Visual
Format profile : Advanced Simple@L5
Format settings, BVOP : Yes
Format settings, QPel : No
Format settings, GMC : No warppoints
Format settings, Matrix : Default (H.263)
Codec ID : XVID
Codec ID/Hint : XviD
Duration : 2h 4mn
Bit rate : 1 535 Kbps
Width : 704 pixels
Height : 544 pixels
Display aspect ratio : 1.294
Frame rate : 25.000 fps
Resolution : 8 bits
Colorimetry : 4:2:0
Scan type : Progressive
Bits/(Pixel*Frame) : 0.160
Stream size : 1.34 GiB (94%)
Writing library : XviD 73
Audio
ID : 1
Format : MPEG Audio
Format version : Version 1
Format profile : Layer 3
Codec ID : 55
Codec ID/Hint : MP3
Duration : 2h 4mn
Bit rate mode : Constant
Bit rate : 96.0 Kbps
Channel(s) : 1 channel
Sampling rate : 48.0 KHz
Video delay : 50ms
Stream size : 85.6 MiB (6%)
Alignment : Split accross interleaves
Interleave, duration : 40 ms (1.00 video frame)
Interleave, preload duration : 500 ms
Скриншот c названием фильма Скриншоты Сравнение с раздачей traban от 03-Ноября-2006
traban, DivX, 720 х 544, 1.36 Gb CaCa48, XviD, 704 x 544, 1.43 Gb
[url=http://***/forum/viewtopic.php?t=88113]http://***/forum/viewtopic.php?t=88113[/url]
http://www.screenshotcomparison.com/comparison/98727
Скачать

Скачать торрент!

Как скачивать? · Что такое торрент? · Рейтинг и ограничения

Сайт не распространяет и не хранит электронные версии произведений, а лишь предоставляет доступ к создаваемому пользователями каталогу ссылок на торрент-файлы, которые содержат только списки хеш-сумм

[Профиль] [ЛС]
Показать сообщения:    
Ответить на тему

Текущее время: Сегодня 03:10

Часовой пояс: GMT + 4



Вы не можете начинать темы
Вы не можете отвечать на сообщения
Вы не можете редактировать свои сообщения
Вы не можете удалять свои сообщения
Вы не можете голосовать в опросах
Вы не можете прикреплять файлы к сообщениям
Вы не можете скачивать файлы