Король шуток / Punnagai Mannan (К.Балачандер / K. Balachander) [1986, Индия, Мелодрама, DVDRip] Dub + Sub Rus

Ответить на тему
 
Автор Сообщение

user ®

Стаж: 12 лет

Сообщений: 15092

Пост Пост: #1 от 04-Ноя-2014 19:50

[Цитировать]

Король шуток / Punnagai MannanПолная версия--
Страна: Индия
Жанр: Мелодрама
Год выпуска: 1986
Продолжительность: 02:33:43
Перевод: Профессиональный (дублированный) - Советский дубляж
Cубтитры: Русские (на песни)
Оригинальная аудиодорожка: нет--Режиссер: К.Балачандер / K. Balachander--В ролях: Камал Хассан, Ревати, Шривидья, Рекха Маллик, Чарли, Делхи Ганеш, Виджая Чандрика--Описание: Он - сын простого повара, она - дочь богатых родителей. Сетху и Раджни решают покончить жизнь самоубийством, так как родители Раджни против их свадьбы. Раджни погибает, разбившись о скалы, а Сетху, зацепившись за сучья деревьев, остается жив. Отсидев год в тюрьме, он возвращается к обычной жизни. И встречает девушку Малини, которая сразу влюбляется в него.--Доп. информация: Фильм был дублирован на телугу под названием Dance Master, а в 1996 вышел вариант на хинди Cha Cha Charlee.--Как всегда большое спасибо larisa_k и Nastia, за проделанные работы!!!
Перевод субтитров (непереведенные места) и предоставленные материалы: larisa_k
Русская дублированная звуковая дорожка взята с VHS
Песни с оригинальной дорожки
В двух местах фильма, есть очень короткие фразы без дубляжа с общей продолжительностью 20 секунд!
В этих местах вставлена озвучка от Nastia, за что большое ей спасибо!
Рип и синхронизация звука: pca1962--

Качество видео: DVDRip
Формат видео: AVI
Видео: XviD, 640x480, 23.97 fps, 1660 kbps
Аудио: AC3, 48 kHz, 2.0 (stereo), 224 kbps (русский)
Формат субтитров: softsub (SRT)-
-
MediaInfo
=== Общие ===
Полное имя : Korol.shutok.1986.DVDRip.XviD.pca1962.avi
Формат : AVI
Описание формата : Audio Video Interleave
Профиль формата : OpenDML
Размер файла : 2.04 Гб
Длительность : 2ч 33мин
Общий битрейт : 1 896 кбит/сек
Название фильма : Korol.shutok.1986
Director : pca1962
Жанр / стиль : Melodrama
Програмное обеспечение : VirtualDubMod 1.5.10.2 (build 2540/release)
Original source form/Name : Movie
=== Видео ===
ID (Идентификатор) : 0
Формат : MPEG-4 Visual
Профиль формата : Advanced Simple@L5
Параметр 'BVOP' : 1
Параметр 'QPel' : Нет
Параметр 'GMC' : No warppoints
Параметр 'Matrix' : Default (H.263)
Идентификатор кодека : XVID
Подпись кодека : XviD
Длительность : 2ч 33мин
Битрейт : 1660 кбит/сек
Ширина кадра : 640 пикселей
Высота кадра : 480 пикселей
Соотношение сторон : 4:3
Частота кадров : 23.976 кадров/сек
Цветовое пространство : YUV
Субдискретизация насыщенности : 4:2:0
Глубина (разрядность) : 8 bits
Тип развертки : Прогрессивная
Режим сжатия : С потерями
Бит/(пиксель*кадр) : 0.225
Размер потока : 1.78 Гб (88%)
Кодирующая библиотека : XviD 1.2.1 (UTC 2008-12-04)
=== Аудио ===
ID (Идентификатор) : 1
Формат : AC-3
Описание формата : Audio Coding 3
Mode extension : CM (complete main)
Идентификатор кодека : 2000
Длительность : 2ч 33мин
Тип битрейта : Постоянный
Битрейт : 224 кбит/сек
Канал(ы) : 2 каналов
Расположение каналов : Front: L R
Частота дискретизации : 48.0 кГц
Глубина (разрядность) : 16 bits
Режим сжатия : С потерями
Размер потока : 246 Мб (12%)
Расположение потока : Split accross interleaves
Период чередования : 42 мс (1.00 video frame)
Предварительная загрузка : 500 мс

-
-Скриншот c названием фильма Скриншоты
Скачать

Скачать торрент! Король шуток / Punnagai Mannan (К.Балачандер / K. Balachander) [1986, Индия, Мелодрама, DVDRip] Dub + Sub Rus

Как скачивать? · Что такое торрент? · Рейтинг и ограничения

Сайт не распространяет и не хранит электронные версии произведений, а лишь предоставляет доступ к создаваемому пользователями каталогу ссылок на торрент-файлы, которые содержат только списки хеш-сумм

[Профиль] [ЛС]
Показать сообщения:    
Ответить на тему

Текущее время: Сегодня 14:27

Часовой пояс: GMT + 4



Вы не можете начинать темы
Вы не можете отвечать на сообщения
Вы не можете редактировать свои сообщения
Вы не можете удалять свои сообщения
Вы не можете голосовать в опросах
Вы не можете прикреплять файлы к сообщениям
Вы не можете скачивать файлы