Очень странный рай / A Fairly Odd Summer (Севедж Стив Холланд / Savage Steve Holland) [2014, США, Комедия, фентези, HDTVRip 720p] Dub (SDI Media) + Original Eng

Ответить на тему
 
Автор Сообщение

user ®

Стаж: 7 лет 7 месяцев

Сообщений: 20008

Пост Пост: #1 от 04-Ноя-2014 19:50

[Цитировать]

Очень Странный Рай / A Fairly Odd Summer
Страна: США
Студия: Billionfold.inc Frederator Studios Pacific Bay Entertainment
Жанр: Комедия, фентези
Год выпуска: 2014
Продолжительность: 01:06:08
Перевод: Профессиональный (дублированный) SDI Media (по заказу Nickelodeon)
Cубтитры: нет
Оригинальная аудиодорожка: английский
Режиссер: Севедж Стив Холланд / Savage Steve Holland
В ролях: Дрейк Белл, Тара Стронг, Скотт Байо, Терил Ротери, Даниэлла Монэ, Даран Норрис, Элла Андерсон, Эли Либерт, Дэвид Льюис, Керин Хэлпин
Описание: Пришло лето. Феи, друзья и родители Тимми отправляются развлекаться на Гавайи. Сам же Тимми вынужден отказаться от поездки, ведь ему поручено серьезное задание – он должен охранять важнейший артефакт мира магии Абра-кадабриум, в котором сосредоточено всё волшебство Мира фей. Тимми очень хочется на Гавайи, и, когда он узнает, что его семье и друзьям нужна его помощь, он рад туда отправиться. Крокер и Фуп узнают о том, что Тимми на Гавайях вместе с Абра-кадабриумом, и разрабатывают план, как выкрасть артефакт и завладеть миром фей.
Сэмпл: http://multi-up.com/1010667
Тип релиза: HDTVRip 720p
Контейнер: MKV
Видео: AVC. 1280x720, 16:9, ~4500 kbps, 23.976 fps
Аудио 1: Русский: AC-3, 2 ch, 48 kHz, 192 kbps
Аудио 2: English: AC-3, 2 ch, 48 kHz, 384 kbps
MediaInfo
Общее
Уникальный идентификатор : 184610487442645259021078499246598634935 (0x8AE2AFC3CBF85431B11E446608B9BDB7)
Полное имя : D:\Video\A Fairly Odd Summer (DUB).mkv
Формат : Matroska
Версия формата : Version 4 / Version 2
Размер файла : 2,39 Гбайт
Продолжительность : 1 ч. 6 м.
Общий поток : 5167 Кбит/сек
Дата кодирования : UTC 2014-11-03 10:09:20
Программа кодирования : mkvmerge v7.3.0 ('Nouages') 32bit built on Oct 22 2014 18:44:01
Библиотека кодирования : libebml v1.3.0 + libmatroska v1.4.1
DURATION : 01:06:08.160000000
NUMBER_OF_FRAMES : 124005
NUMBER_OF_BYTES : 190471680
_STATISTICS_WRITING_APP : mkvmerge v7.3.0 ('Nouages') 32bit built on Oct 22 2014 18:44:01
_STATISTICS_WRITING_DATE_UTC : 2014-11-03 10:09:20
_STATISTICS_TAGS : BPS DURATION NUMBER_OF_FRAMES NUMBER_OF_BYTES
Видео
Идентификатор : 1
Формат : AVC
Формат/Информация : Advanced Video Codec
Профиль формата : High@L4.1
Параметр CABAC формата : Да
Параметр ReFrames формата : 5 кадров
Идентификатор кодека : V_MPEG4/ISO/AVC
Продолжительность : 1 ч. 6 м.
Битрейт : 4488 Кбит/сек
Ширина : 1280 пикселей
Высота : 720 пикселей
Соотношение сторон : 16:9
Режим частоты кадров : Постоянный
Частота кадров : 23,976 кадра/сек
Цветовое пространство : YUV
Субдискретизация насыщенности : 4:2:0
Битовая глубина : 8 бит
Тип развёртки : Прогрессивная
Бит/(Пиксели*Кадры) : 0.203
Размер потока : 2,07 Гбайт (87%)
Библиотека кодирования : x264 core 142 r2453 ea0ca51
Настройки программы : cabac=1 / ref=5 / deblock=1:0:0 / analyse=0x3:0x113 / me=umh / subme=8 / psy=1 / psy_rd=1.00:0.00 / mixed_ref=1 / me_range=16 / chroma_me=1 / trellis=1 / 8x8dct=1 / cqm=0 / deadzone=21,11 / fast_pskip=1 / chroma_qp_offset=-2 / threads=12 / lookahead_threads=2 / sliced_threads=0 / nr=0 / decimate=1 / interlaced=0 / bluray_compat=0 / constrained_intra=0 / bframes=3 / b_pyramid=2 / b_adapt=2 / b_bias=0 / direct=3 / weightb=1 / open_gop=0 / weightp=2 / keyint=250 / keyint_min=23 / scenecut=40 / intra_refresh=0 / rc_lookahead=50 / rc=crf / mbtree=1 / crf=18.0 / qcomp=0.60 / qpmin=0 / qpmax=69 / qpstep=4 / ip_ratio=1.40 / aq=1:1.00
Default : Да
Forced : Нет
Коэффициенты матрицы : BT.709
Аудио #1
Идентификатор : 2
Формат : AC-3
Формат/Информация : Audio Coding 3
Расширение режима : CM (complete main)
Параметр Endianness формата : Big
Идентификатор кодека : A_AC3
Продолжительность : 1 ч. 6 м.
Вид битрейта : Постоянный
Битрейт : 192 Кбит/сек
Каналы : 2 канала
Расположение каналов : Front: L R
Частота : 48,0 КГц
Битовая глубина : 16 бит
Метод сжатия : С потерями
Размер потока : 90,8 Мбайт (4%)
Заголовок : Nick
Язык : Russian
Default : Да
Forced : Нет
Аудио #2
Идентификатор : 3
Формат : AC-3
Формат/Информация : Audio Coding 3
Расширение режима : CM (complete main)
Параметр Endianness формата : Big
Идентификатор кодека : A_AC3
Продолжительность : 1 ч. 6 м.
Вид битрейта : Постоянный
Битрейт : 384 Кбит/сек
Каналы : 2 канала
Расположение каналов : Front: L R
Частота : 48,0 КГц
Битовая глубина : 16 бит
Метод сжатия : С потерями
Размер потока : 182 Мбайт (7%)
Язык : English
Default : Нет
Forced : Нет
Скриншоты
Скачать

Скачать торрент!

Как скачивать? · Что такое торрент? · Рейтинг и ограничения

Сайт не распространяет и не хранит электронные версии произведений, а лишь предоставляет доступ к создаваемому пользователями каталогу ссылок на торрент-файлы, которые содержат только списки хеш-сумм

[Профиль] [ЛС]
Показать сообщения:    
Ответить на тему

Текущее время: Сегодня 22:41

Часовой пояс: GMT + 4



Вы не можете начинать темы
Вы не можете отвечать на сообщения
Вы не можете редактировать свои сообщения
Вы не можете удалять свои сообщения
Вы не можете голосовать в опросах
Вы не можете прикреплять файлы к сообщениям
Вы не можете скачивать файлы