Путь к сердцу мужчины (Михаил Жерневский) [2013, Россия, мелодрама, HDTVRip 720p]

Ответить на тему
 
Автор Сообщение

user ®

Стаж: 7 лет 7 месяцев

Сообщений: 20008

Пост Пост: #1 от 04-Ноя-2014 16:40

[Цитировать]

Путь к сердцу мужчины
Выпущено: Россия, "Медиапрофсоюз"
Жанр: мелодрама
Год выпуска: 2013
Продолжительность: 01:30:31
Субтитры: нет
Режиссер: Михаил Жерневский
В ролях: Олеся Фаттахова, Иван Жидков, Ирина Шеянова, Эвелина Сакуро, Виктор Синайский, Людмила Кучеренко, Александр Зеленко, Александр Одинец
Описание: Провинциальная девушка Анюта не знала, что приезд в Москву изменит не только её жизнь, но и её саму. Она вырвалась из глуши, где мир делят на «чёрное» и «белое», не зная полутонов. Но можно ли назвать только «белым» любовь к образованному, но испорченному мужчине? А исключительно «чёрным» необходимость жить в элитном доме и в обществе, где всё и все имеют свою цену?

Автор рипа / записи: fanatus
Исходник: Запись с телеканала РОССИЯ HD
Качество: HDTVRip 720p
Формат: MKV
Видео кодек: H.264
Аудио кодек: AC3
Видео: MPEG-4 AVC, 5111 kbps , 1280x718 (16:9), 25.000 fps, 0.222 bit/pixel
Аудио: AC3, 2 ch, 48 kHz, 192 kbps
MediaInfo
General
Unique ID : 227786427903145898826815848654409643862 (0xAB5E11FB675E4CC6BB2A58D3A3793756)
Complete name : E:\Put_k_serdcu_muzhchiny.(2013).x264.HDTVRip.720p.fanatus.mkv
Format : Matroska
Format version : Version 2
File size : 3.35 GiB
Duration : 1h 30mn
Overall bit rate : 5 301 Kbps
Movie name : Put k serdcu muzhchiny (2013) - fanatus
Encoded date : UTC 2014-11-03 14:15:16
Writing application : mkvmerge v3.4.0 ('Rapunzel') сборка от May 15 2010 09:38:20
Writing library : libebml v0.8.0 + libmatroska v0.9.0
Video
ID : 1
Format : AVC
Format/Info : Advanced Video Codec
Format profile : High@L4.1
Format settings, CABAC : Yes
Format settings, ReFrames : 9 frames
Codec ID : V_MPEG4/ISO/AVC
Duration : 1h 30mn
Bit rate : 5 111 Kbps
Width : 1 280 pixels
Height : 718 pixels
Display aspect ratio : 16:9
Frame rate : 25.000 fps
Color space : YUV
Chroma subsampling : 4:2:0
Bit depth : 8 bits
Scan type : Progressive
Bits/(Pixel*Frame) : 0.222
Stream size : 3.16 GiB (94%)
Title : HDTVRip(720p)
Writing library : x264 core 142 r2453 ea0ca51
Encoding settings : cabac=1 / ref=9 / deblock=1:-3:-3 / analyse=0x3:0x133 / me=umh / subme=11 / psy=1 / psy_rd=1.00:0.10 / mixed_ref=1 / me_range=64 / chroma_me=1 / trellis=2 / 8x8dct=1 / cqm=0 / deadzone=21,11 / fast_pskip=0 / chroma_qp_offset=-3 / threads=16 / lookahead_threads=2 / sliced_threads=0 / nr=0 / decimate=0 / interlaced=0 / bluray_compat=0 / constrained_intra=0 / bframes=9 / b_pyramid=2 / b_adapt=2 / b_bias=0 / direct=3 / weightb=1 / open_gop=0 / weightp=2 / keyint=250 / keyint_min=25 / scenecut=40 / intra_refresh=0 / rc=2pass / mbtree=0 / bitrate=5111 / ratetol=1.0 / qcomp=0.65 / qpmin=0 / qpmax=69 / qpstep=4 / cplxblur=20.0 / qblur=0.5 / ip_ratio=1.40 / pb_ratio=1.30 / aq=1:0.80
Language : Russian
Default : Yes
Forced : No
Audio
ID : 2
Format : AC-3
Format/Info : Audio Coding 3
Mode extension : CM (complete main)
Format settings, Endianness : Big
Codec ID : A_AC3
Duration : 1h 30mn
Bit rate mode : Constant
Bit rate : 192 Kbps
Channel(s) : 2 channels
Channel positions : Front: L R
Sampling rate : 48.0 KHz
Bit depth : 16 bits
Compression mode : Lossy
Stream size : 124 MiB (4%)
Language : Russian
Default : Yes
Forced : No
Скриншот c названием фильма Скриншоты
Скачать

Скачать торрент!

Как скачивать? · Что такое торрент? · Рейтинг и ограничения

Сайт не распространяет и не хранит электронные версии произведений, а лишь предоставляет доступ к создаваемому пользователями каталогу ссылок на торрент-файлы, которые содержат только списки хеш-сумм

[Профиль] [ЛС]
Показать сообщения:    
Ответить на тему

Текущее время: Сегодня 18:23

Часовой пояс: GMT + 4



Вы не можете начинать темы
Вы не можете отвечать на сообщения
Вы не можете редактировать свои сообщения
Вы не можете удалять свои сообщения
Вы не можете голосовать в опросах
Вы не можете прикреплять файлы к сообщениям
Вы не можете скачивать файлы