Гарри Поттер и Дары смерти: Часть II / Harry Potter and the Deathly Hallows: Part 2 (Дэвид Йэтс / David Yates) [2011, США, Великобритания, фэнтези, драма, детектив, приключения, BDRemux 1080p] Dub + Sub Rus, Eng + Ukr + Original Eng

Ответить на тему
 
Автор Сообщение

user ®

Стаж: 7 лет 7 месяцев

Сообщений: 20008

Пост Пост: #1 от 04-Ноя-2014 16:40

[Цитировать]

-Гарри Поттер и Дары смерти: Часть 2
Harry Potter and the Deathly Hallows: Part 2
«Все закончится»
-- Название: Гарри Поттер и Дары смерти: Часть 2
Оригинальное название: Harry Potter and the Deathly Hallows: Part 2
Год выпуска: 2011
Страна: США, Великобритания
Жанр: Фэнтези, драма, детектив, приключения
Продолжительность: 02:10:27
Перевод: Профессиональный (полное дублирование)
Формат субтитров: softsub (Voronine)
Оригинальная аудиодорожка: английская-Режиссер: Дэвид Йэтс / David Yates
Сценарий: Стивен Кловз, Дж.К. Роулинг
Композитор: Александр Деспла
Оператор: Эдуарду Серра
Художник: Стюарт Крэйг, Эндрю Эклэнд-Сноу, Марк Бартоломью
Монтаж: Марк Дэй-В ролях: Дэниэл Рэдклифф, Руперт Гринт, Эмма Уотсон, Рэйф Файнс, Алан Рикман, Хелена Бонем Картер, Том Фелтон, Гари Олдман, Майкл Гэмбон, Мэгги Смит-Релиз на Blu-Ray: 17 ноября 2011, «CP-Digital»-Описание:
В грандиозной последней главе битва между добрыми и злыми силами мира волшебников перерастает во всеобщую войну. Ставки ещё никогда не были так высоки, а поиск убежища — столь сложен. И быть может именно Гарри Поттеру придется пожертвовать всем в финальном сражении с Волан-де-Мортом. Способен ли наш герой спасти мир? И всё закончится здесь.-kinopoisk.ru: 8.116 (153 979)
imdb.com: 8.10 (391 542)
-РАЗДАЧА ОТ:
Семпл-Тип релиза: BDRemux 1080p
Контейнер: MKV
Видео: MPEG-4 AVC/H.264, 17346 kbps, 1920х1080, 16:9
Аудио #1: Русский, AC3 5.1, 640 kbps |Дубляж, Blu-ray CEE|
Аудио #2: Украинский, AC3 5.1, 640 kbps |Дубляж, Blu-ray CEE|
Аудио #3: Английский, DTS-HD Master Audio, 5.1, 48 kHz, 3841 kbps, 24-bit (DTS Core: 5.1, 48 kHz, 1509 kbps, 24-bit) |Оригинал|
Оригинальные чаптеры сохранены.-Субтитры: English, Russian (Voronine)-MediaInfo
General
Unique ID : 197065039436246294071358047632792213287 (0x944158965A7CC3DBA9D55F1B7BBBD727)
Format : Matroska
Format version : Version 2
File size : 20.5 GiB
Duration : 2h 10mn
Overall bit rate mode : Variable
Overall bit rate : 22.5 Mbps
Encoded date : UTC 2011-11-10 13:12:04
Writing application : mkvmerge v3.3.0 ('Language') built on Mar 24 2010 14:59:24
Writing library : libebml v0.8.0 + libmatroska v0.9.0
Video
ID : 1
Format : AVC
Format/Info : Advanced Video Codec
Format profile : High@L4.1
Format settings, CABAC : Yes
Format settings, ReFrames : 2 frames
Codec ID : V_MPEG4/ISO/AVC
Duration : 2h 10mn
Bit rate mode : Variable
Width : 1 920 pixels
Height : 1 080 pixels
Display aspect ratio : 16:9
Frame rate mode : Constant
Frame rate : 23.976 fps
Color space : YUV
Chroma subsampling : 4:2:0
Bit depth : 8 bits
Scan type : Progressive
Language : English
Default : Yes
Forced : No
Audio #1
ID : 2
Format : AC-3
Format/Info : Audio Coding 3
Mode extension : CM (complete main)
Format settings, Endianness : Big
Codec ID : A_AC3
Duration : 2h 10mn
Bit rate mode : Constant
Bit rate : 640 Kbps
Channel(s) : 6 channels
Channel positions : Front: L C R, Side: L R, LFE
Sampling rate : 48.0 KHz
Bit depth : 16 bits
Compression mode : Lossy
Stream size : 597 MiB (3%)
Language : Russian
Default : Yes
Forced : No
Audio #2
ID : 3
Format : AC-3
Format/Info : Audio Coding 3
Mode extension : CM (complete main)
Format settings, Endianness : Big
Codec ID : A_AC3
Duration : 2h 10mn
Bit rate mode : Constant
Bit rate : 640 Kbps
Channel(s) : 6 channels
Channel positions : Front: L C R, Side: L R, LFE
Sampling rate : 48.0 KHz
Bit depth : 16 bits
Compression mode : Lossy
Stream size : 597 MiB (3%)
Language : Ukrainian
Default : No
Forced : No
Audio #3
ID : 4
Format : DTS
Format/Info : Digital Theater Systems
Format profile : MA / Core
Mode : 16
Format settings, Endianness : Big
Codec ID : A_DTS
Duration : 2h 10mn
Bit rate mode : Variable
Bit rate : Unknown / 1 509 Kbps
Channel(s) : 6 channels
Channel positions : Front: L C R, Side: L R, LFE
Sampling rate : 48.0 KHz
Bit depth : 24 bits
Compression mode : Lossless / Lossy
Language : English
Default : No
Forced : No
Text #1
ID : 5
Format : UTF-8
Codec ID : S_TEXT/UTF8
Codec ID/Info : UTF-8 Plain Text
Language : Russian
Default : No
Forced : No
Text #2
ID : 6
Format : UTF-8
Codec ID : S_TEXT/UTF8
Codec ID/Info : UTF-8 Plain Text
Language : English
Default : No
Forced : No
Menu
00:00:00.000 : :00:00:00.000
00:02:58.219 : :00:02:58.219
00:06:21.172 : :00:06:21.172
00:10:21.871 : :00:10:21.871
00:14:27.992 : :00:14:27.992
00:20:05.621 : :00:20:05.621
00:22:47.783 : :00:22:47.783
00:25:38.620 : :00:25:38.620
00:30:46.803 : :00:30:46.803
00:34:33.654 : :00:34:33.654
00:40:32.263 : :00:40:32.263
00:45:52.249 : :00:45:52.249
00:50:15.470 : :00:50:15.470
00:54:41.027 : :00:54:41.027
00:59:01.245 : :00:59:01.245
01:03:42.067 : :01:03:42.067
01:07:06.063 : :01:07:06.063
01:11:24.488 : :01:11:24.488
01:14:38.932 : :01:14:38.932
01:23:40.848 : :01:23:40.848
01:29:17.727 : :01:29:17.727
01:31:25.020 : :01:31:25.020
01:36:37.666 : :01:36:37.666
01:41:09.104 : :01:41:09.104
01:46:42.312 : :01:46:42.312
01:50:18.361 : :01:50:18.361
01:54:16.682 : :01:54:16.682
01:58:12.876 : :01:58:12.876
02:10:26.609 : :02:10:26.609
Скриншоты
Скачать

Скачать торрент!

Как скачивать? · Что такое торрент? · Рейтинг и ограничения

Сайт не распространяет и не хранит электронные версии произведений, а лишь предоставляет доступ к создаваемому пользователями каталогу ссылок на торрент-файлы, которые содержат только списки хеш-сумм

[Профиль] [ЛС]
Показать сообщения:    
Ответить на тему

Текущее время: Сегодня 07:04

Часовой пояс: GMT + 4



Вы не можете начинать темы
Вы не можете отвечать на сообщения
Вы не можете редактировать свои сообщения
Вы не можете удалять свои сообщения
Вы не можете голосовать в опросах
Вы не можете прикреплять файлы к сообщениям
Вы не можете скачивать файлы