Суперполицейские / Супер Полицейские / Super Troopers (Джей Чандрашекхар / Jay Chandrasekhar) [2001, США, комедия, криминал, детектив, BDRip 720p] DVO + VO (Amphetamino) + AVO (Карповский) + Sub Eng + Original Eng

Ответить на тему
 
Автор Сообщение

user ®

Стаж: 7 лет 7 месяцев

Сообщений: 20008

Пост Пост: #1 от 04-Ноя-2014 16:40

[Цитировать]

-Суперполицейские / Супер Полицейские /
Super Troopers
- Страна: США
Жанр: комедия, криминал, детектив
Год выпуска: 2001
Продолжительность: 01:40:20
Перевод 1: Профессиональный (двухголосый закадровый)
Перевод 2: Одноголосый закадровый Amphetamino
Перевод 3: Авторский (одноголосый закадровый) Карповский
Cубтитры: английские
Оригинальная аудиодорожка: английский-Режиссер: Джей Чандрашекхар / Jay Chandrasekhar
В ролях: Брайан Кокс (Capt. John O'Hagen), Дэниэл фон Барген (Police Chief Bruce Grady), Андре Випполис (College Boy 1), Джои Керн (College Boy 2), Джеффри Аренд (College Boy 3), Эрик Столханске (State Trooper Robert 'Rabbit' Roto), Джей Чандрашекхар (State Trooper Arcot 'Thorny' Ramathorn), Стив Лемм (State Trooper MacIntyre 'Mac' Womack), Кевин Хеффернан (State Trooper Rodney Farva), Пол Сотер (State Trooper Jeff Foster), Камилль Хикман (Thin Queen Bartender), Мариса Кохлан (Officer Ursula Hanson)-Описание: Тони, Мак, Рэббит, Фостер и Фава — полицейские штата Вермонт, живут просто припеваючи. Патрулируя небольшую территорию, близь канадской границы, полицейские обленились настолько, что уже просто откровенно «забивают» на работу. Но когда в городе урезают бюджет, что начинает сильно угрожать их карману, 5 друзей объединяются в борьбе за выживание.
Чтобы вернуть все на круги свои необходимо раскрыть убийство и найти все возможные наркотики. Супер полицейские предпринимают попытку раскрыть преступления, тем самым спасти свою работу и доказать местному отделению полиции, что они — лучшие.-Тип релиза: BDRip 720p
Контейнер: MKV
Видео: x.264, 1280x694, 7575 kbps, 23.976fps
Аудио 1: AC3, 224 kbps, 2.0 ch, 48000 Hz - DVO
Аудио 2: AC3, 640 kbps, 5.1 ch, 48000 Hz - VO Amphetamino
Аудио 3: AC3, 192 kbps, 2.0 ch, 48000 Hz - AVO Карповский
Аудио 4: AC3, 640 kbps, 5.1 ch, 48000 Hz - ENG Original
Формат субтитров: softsub (SRT)
-Скриншоты Резервные скриншоты
-
MediaInfo
Format : Matroska
Format version : Version 4 / Version 2
File size : 6.50 GiB
Duration : 1h 40mn
Overall bit rate : 9 272 Kbps
Movie name : Суперполицейские / Super Troopers (2001) BDRip 720p by RG Torrents.ru
Encoded date : UTC 2014-11-03 18:48:18
Writing application : mkvmerge v7.3.0 ('Nouages') 32bit built on Oct 22 2014 18:44:01
Writing library : libebml v1.3.0 + libmatroska v1.4.1
Cover : Yes
Video
ID : 1
Format : AVC
Format/Info : Advanced Video Codec
Format profile : High@L4.1
Format settings, CABAC : Yes
Format settings, ReFrames : 9 frames
Codec ID : V_MPEG4/ISO/AVC
Duration : 1h 40mn
Bit rate : 7 575 Kbps
Width : 1 280 pixels
Height : 694 pixels
Display aspect ratio : 1.85:1
Frame rate mode : Constant
Frame rate : 23.976 fps
Color space : YUV
Chroma subsampling : 4:2:0
Bit depth : 8 bits
Scan type : Progressive
Bits/(Pixel*Frame) : 0.356
Stream size : 5.18 GiB (80%)
Title : RG Torrents.ru
Writing library : x264 core 142 r2479 dd79a61
Encoding settings : cabac=1 / ref=9 / deblock=1:-3:-3 / analyse=0x3:0x133 / me=umh / subme=10 / psy=1 / psy_rd=1.00:0.20 / mixed_ref=1 / me_range=32 / chroma_me=1 / trellis=2 / 8x8dct=1 / cqm=0 / deadzone=21,11 / fast_pskip=0 / chroma_qp_offset=-3 / threads=6 / lookahead_threads=1 / sliced_threads=0 / nr=0 / decimate=1 / interlaced=0 / bluray_compat=0 / constrained_intra=0 / bframes=10 / b_pyramid=2 / b_adapt=2 / b_bias=0 / direct=3 / weightb=1 / open_gop=0 / weightp=2 / keyint=240 / keyint_min=23 / scenecut=40 / intra_refresh=0 / rc_lookahead=60 / rc=2pass / mbtree=0 / bitrate=7575 / ratetol=1.0 / qcomp=0.60 / qpmin=0 / qpmax=69 / qpstep=4 / cplxblur=20.0 / qblur=0.5 / vbv_maxrate=50000 / vbv_bufsize=62500 / nal_hrd=none / filler=0 / ip_ratio=1.30 / pb_ratio=1.30 / aq=2:1.00
Language : English
Default : Yes
Forced : No
Audio #1
ID : 2
Format : AC-3
Format/Info : Audio Coding 3
Mode extension : CM (complete main)
Format settings, Endianness : Big
Codec ID : A_AC3
Duration : 1h 40mn
Bit rate mode : Constant
Bit rate : 224 Kbps
Channel(s) : 2 channels
Channel positions : Front: L R
Sampling rate : 48.0 KHz
Bit depth : 16 bits
Compression mode : Lossy
Stream size : 161 MiB (2%)
Title : DVO
Language : Russian
Default : Yes
Forced : No
Audio #2
ID : 3
Format : AC-3
Format/Info : Audio Coding 3
Mode extension : CM (complete main)
Format settings, Endianness : Big
Codec ID : A_AC3
Duration : 1h 40mn
Bit rate mode : Constant
Bit rate : 640 Kbps
Channel(s) : 6 channels
Channel positions : Front: L C R, Side: L R, LFE
Sampling rate : 48.0 KHz
Bit depth : 16 bits
Compression mode : Lossy
Stream size : 459 MiB (7%)
Title : VO - Amphetamino
Language : Russian
Default : No
Forced : No
Audio #3
ID : 4
Format : AC-3
Format/Info : Audio Coding 3
Mode extension : CM (complete main)
Format settings, Endianness : Big
Codec ID : A_AC3
Duration : 1h 40mn
Bit rate mode : Constant
Bit rate : 192 Kbps
Channel(s) : 2 channels
Channel positions : Front: L R
Sampling rate : 48.0 KHz
Bit depth : 16 bits
Compression mode : Lossy
Stream size : 138 MiB (2%)
Title : AVO - Karpovsky
Language : Russian
Default : No
Forced : No
Audio #4
ID : 5
Format : AC-3
Format/Info : Audio Coding 3
Mode extension : CM (complete main)
Format settings, Endianness : Big
Codec ID : A_AC3
Duration : 1h 40mn
Bit rate mode : Constant
Bit rate : 640 Kbps
Channel(s) : 6 channels
Channel positions : Front: L C R, Side: L R, LFE
Sampling rate : 48.0 KHz
Bit depth : 16 bits
Compression mode : Lossy
Stream size : 459 MiB (7%)
Title : Original
Language : English
Default : No
Forced : No
Text
ID : 6
Format : UTF-8
Codec ID : S_TEXT/UTF8
Codec ID/Info : UTF-8 Plain Text
Language : English
Default : No
Forced : No
Menu
00:00:00.000 : en:Car Talk
00:03:15.320 : en:State Troopers
00:06:50.368 : en:Trooper Games
00:11:49.333 : en:Culture Clash
00:15:20.878 : en:Cat Game
00:18:47.334 : en:A Murder Investigation
00:21:46.054 : en:Who's Jurisdiction Is It?
00:25:54.886 : en:In the Lion's Den
00:31:25.675 : en:A Lotta Pot
00:40:01.732 : en:Drug Conspiracy
00:45:18.632 : en:Illicit Love
00:55:34.831 : en:Burger Punk
01:04:09.929 : en:Bikers
01:05:50.071 : en:Target Practice
01:07:57.907 : en:2 Minutes
01:15:28.398 : en:Shut Down
01:16:24.913 : en:Farva's Surprise
01:20:47.592 : en:You Could Be a Hero
01:27:59.983 : en:The Governor's Letter
01:33:16.507 : en:End Credits
-
Скачать

Скачать торрент!

Как скачивать? · Что такое торрент? · Рейтинг и ограничения

Сайт не распространяет и не хранит электронные версии произведений, а лишь предоставляет доступ к создаваемому пользователями каталогу ссылок на торрент-файлы, которые содержат только списки хеш-сумм

[Профиль] [ЛС]
Показать сообщения:    
Ответить на тему

Текущее время: Сегодня 15:52

Часовой пояс: GMT + 4



Вы не можете начинать темы
Вы не можете отвечать на сообщения
Вы не можете редактировать свои сообщения
Вы не можете удалять свои сообщения
Вы не можете голосовать в опросах
Вы не можете прикреплять файлы к сообщениям
Вы не можете скачивать файлы