История весеннего призыва (Радда Новикова, Юрий Музыка) [2004 г., Комедия, DVDRip]

Ответить на тему
 
Автор Сообщение

user ®

Стаж: 7 лет 7 месяцев

Сообщений: 20008

Пост Пост: #1 от 04-Ноя-2014 16:40

[Цитировать]

История весеннего призыва
Страна: Россия
Жанр: Комедия
Год выпуска: 2004
Продолжительность: 01:35:19
Режиссер: Радда Новикова, Юрий Музыка
В ролях: Александр Семчев, Сергей Лактюнькин, Карина Разумовская Елена Николаева Любовь Руденко
Описание:Светка и Ваня собираются пожениться, когда в их маленький городок приходит весна, а вместе с ней армейский призыв. И, как назло, Ваня ни за что не желает закосить от армии и мечтает служить в десанте. Светка не согласна ждать Ваню целых два года. Вместе с подругой они разрабатывают хитроумный план, как "отмазать" парня от армии вопреки его воле. Оказывается, достаточно соблазнить майора из военкомата, потом шантажировать его, и тот обязательно признает Ванюшу к службе негодным. Светка берется за осуществление плана, однако об этом становится известно ее Ванюше. Парень ревнует Светку к майору, и той стоит немалых трудов убедить его в своей невинности... Тем более, что майор влюбился в свою соблазнительницу и готов ради нее на все.

Сэмпл
Качество: [url=http://***/forum/viewtopic.php?t=1680220]DVDRip[/url]
Контейнер: AVI
Видео: :672x384 (1.75:1), 25 fps, XviD build 50 ~952 kbps avg, 0.15 bit/pixel
Аудио:48 kHz, MPEG Layer 3, 2 ch, ~128.00 kbps avg

MI
General
Complete name : C:\Users\Вячеслав\Downloads\Istoriya.Vesennego.Priziva.700.Некул.avi
Format : AVI
Format/Info : Audio Video Interleave
File size : 744 MiB
Duration : 1h 35mn
Overall bit rate : 1 091 Kbps
Writing application : VirtualDubMod 1.5.10.3 | www.virtualdub-fr.org || (build 2550/release)
Writing library : VirtualDubMod build 2550/release
Video
ID : 0
Format : MPEG-4 Visual
Format profile : Advanced Simple@L5
Format settings, BVOP : 1
Format settings, QPel : No
Format settings, GMC : No warppoints
Format settings, Matrix : Default (MPEG)
Codec ID : XVID
Codec ID/Hint : XviD
Duration : 1h 35mn
Bit rate : 953 Kbps
Width : 672 pixels
Height : 384 pixels
Display aspect ratio : 16:9
Frame rate : 25.000 fps
Color space : YUV
Chroma subsampling : 4:2:0
Bit depth : 8 bits
Scan type : Progressive
Compression mode : Lossy
Bits/(Pixel*Frame) : 0.148
Stream size : 650 MiB (87%)
Writing library : XviD 1.2.1 (UTC 2008-12-04)
Audio
ID : 1
Format : MPEG Audio
Format version : Version 1
Format profile : Layer 3
Codec ID : 55
Codec ID/Hint : MP3
Duration : 1h 35mn
Bit rate mode : Constant
Bit rate : 128 Kbps
Channel(s) : 2 channels
Sampling rate : 48.0 KHz
Compression mode : Lossy
Stream size : 87.3 MiB (12%)
Alignment : Aligned on interleaves
Interleave, duration : 40 ms (1.00 video frame)
Interleave, preload duration : 504 ms
Writing library : LAME3.99r
Encoding settings : -m s -V 4 -q 2 -lowpass 17 -b 128
Скриншоты
Скачать

Скачать торрент!

Как скачивать? · Что такое торрент? · Рейтинг и ограничения

Сайт не распространяет и не хранит электронные версии произведений, а лишь предоставляет доступ к создаваемому пользователями каталогу ссылок на торрент-файлы, которые содержат только списки хеш-сумм

[Профиль] [ЛС]
Показать сообщения:    
Ответить на тему

Текущее время: Сегодня 20:33

Часовой пояс: GMT + 4



Вы не можете начинать темы
Вы не можете отвечать на сообщения
Вы не можете редактировать свои сообщения
Вы не можете удалять свои сообщения
Вы не можете голосовать в опросах
Вы не можете прикреплять файлы к сообщениям
Вы не можете скачивать файлы