Посеяли девушки лен (Владимир Корш-Саблин) [1956, Мелодрама, DVDScreener]

Ответить на тему
 
Автор Сообщение

user ®

Стаж: 7 лет 7 месяцев

Сообщений: 20008

Пост Пост: #1 от 04-Ноя-2014 16:40

[Цитировать]

Посеяли девушки лен
Жанр: Мелодрама
Год выпуска: 1956
Продолжительность: 00:46:33
Режиссёр: Владимир Корш-Саблин
В ролях: Зоя Степанова, Елена Тяпкина, Лев Фричинский, Борис Кордунов, Лариса Кронберг, Тамара Трушина, Глеб Глебов, Людмила Семенова, Нина Алисова, Александр Ильинский, Павел Пекур, А. Лихачев, Анатолий Трус, Георгий Гумилевский, Валентина Кравченко

Описание: Сюжет из колхозной жизни. Звеньевая белорусского колхоза Найдейка Красович, воодушевленная наградой на Всесоюзной сельскохозяйственной выставке за высокий урожай льна, дает слово вдвое увеличить урожай. Многие односельчане сомневаются в ее успехе, и лишь Григорий Павлович, новый директор МТС, оставивший в городе семью и приехавший в село по зову партии, оказывает Надейке всяческую поддержку и чрезмерное внимание, потому что любит и, кажется, любим. Параллельно этой истории развивается сюжет о любви трактористки Зоси к леснику Янке, который безответно страдает по Надейке.
Доп. информация: Релиз: , pmv
Сэмпл: http://multi-up.com/1010929
Качество видео: DVDScreener
Формат видео: AVI
Видео: 720x544 (1.32:1), 25 fps, XviD build 73 ~1978 kbps avg, 0.20 bit/pixel
Аудио: 48 kHz, MPEG Layer 3, 2 ch, ~128.00 kbps avg
MediaInfo
Format : AVI
Format/Info : Audio Video Interleave
File size : 1.40 GiB
Duration : 1h 25mn
Overall bit rate : 2 329 Kbps
Writing library : VirtualDub build 35560/release
Video
ID : 0
Format : MPEG-4 Visual
Format profile : Advanced Simple@L5
Format settings, BVOP : 2
Format settings, QPel : No
Format settings, GMC : No warppoints
Format settings, Matrix : Default (H.263)
Codec ID : XVID
Codec ID/Hint : XviD
Duration : 1h 25mn
Bit rate : 2 191 Kbps
Width : 720 pixels
Height : 544 pixels
Display aspect ratio : 4:3
Frame rate : 25.000 fps
Color space : YUV
Chroma subsampling : 4:2:0
Bit depth : 8 bits
Scan type : Progressive
Compression mode : Lossy
Bits/(Pixel*Frame) : 0.224
Stream size : 1.31 GiB (94%)
Writing library : XviD 73
Audio
ID : 1
Format : MPEG Audio
Format version : Version 1
Format profile : Layer 3
Mode : Joint stereo
Codec ID : 55
Codec ID/Hint : MP3
Duration : 1h 25mn
Bit rate mode : Constant
Bit rate : 128 Kbps
Channel(s) : 2 channels
Sampling rate : 48.0 KHz
Compression mode : Lossy
Delay relative to video : 100ms
Stream size : 78.6 MiB (5%)
Alignment : Split accross interleaves
Interleave, duration : 40 ms (1.00 video frame)
Interleave, preload duration : 500 ms
Скриншот c названием фильма Скриншоты
Скачать

Скачать торрент!

Как скачивать? · Что такое торрент? · Рейтинг и ограничения

Сайт не распространяет и не хранит электронные версии произведений, а лишь предоставляет доступ к создаваемому пользователями каталогу ссылок на торрент-файлы, которые содержат только списки хеш-сумм

[Профиль] [ЛС]
Показать сообщения:    
Ответить на тему

Текущее время: Сегодня 04:18

Часовой пояс: GMT + 4



Вы не можете начинать темы
Вы не можете отвечать на сообщения
Вы не можете редактировать свои сообщения
Вы не можете удалять свои сообщения
Вы не можете голосовать в опросах
Вы не можете прикреплять файлы к сообщениям
Вы не можете скачивать файлы