Семейка миссис Браун в кино / Mrs. Brown\'s Boys D\'Movie (Бен Келлетт / Ben Kellett) [2014, Ирландия, Великобритания, комедия, DVDRip] VO (Виктор Береговых)

Ответить на тему
 
Автор Сообщение

user ®

Стаж: 7 лет 7 месяцев

Сообщений: 20008

Пост Пост: #1 от 04-Ноя-2014 16:40

[Цитировать]

Семейка миссис Браун в кино / Mrs. Brown's Boys D'Movie
Страна: Ирландия, Великобритания
Жанр: комедия
Год выпуска: 2014
Продолжительность: 01:34:19
Перевод: Одноголосый закадровый (Виктор Береговых) - по переводу Михаила Васильева
Cубтитры: нет
Режиссер: Бен Келлетт / Ben Kellett
В ролях: Брендан О’Кэрролл, Дженнифер Гибни, Дермот О’Нилл, Эйлиш О’Кэрролл, Аманда Вудс, Рори Кауэн, Пэт Шилдс
Описание: Полнометражный фильм, снятый по мотивам суперпопулярного ирландского ситкома "Семейка миссис Браун", рассказывающего о жизни дружной, но немножко взбалмошной семьи Браунов, где всем верховодит веселая вдова - миссис Агнес Браун.
На этот раз Браунам приходится выяснять отношения с налоговой инспекцией, коррумпированными чиновниками и русской мафией.
Доп. информация: Фильм 3 недели был лидером проката в Ирландии, пока его не сдвинули на второе место «Трансформеры».
За три года существования ситком «Семейка миссис Браун» побил все рекорды по популярности, стал самым успешным шоу в истории ирландского ТВ и собрал целый склад наград "зрительских симпатий". Так что, появление полнометражки стало вполне закономерным событием.
Критики, которые (в отличие от обычных зрителей) никогда не любили это шоу, ругают сериал (и фильм) за старомодность и шаблонность.
Соглашаться с ними или нет — дело каждого.
Фильм посвящается всем ценителям ситкомов, фанатам абсурдистского юмора и поклонникам ирландского акцента
Отличие: [url=http://***/forum/viewtopic.php?t=4853219]http://***/forum/viewtopic.php?t=4853219[/url] - наличие озвучки
Сэмпл: https://www.sendspace.com/file/jqnvc8
Качество видео: DVDRip
Формат видео: AVI
Видео: 896 Kbps, 640x352, (16:9), 23 976 fps, MPEG 4 XviD
Аудио: AC3, 48.0 KHz, 192 Kbps, 2 channels
MediaInfo
Format : AVI
Format/Info : Audio Video Interleave
File size : 741 MiB
Duration : 1h 34mn
Overall bit rate : 1 098 Kbps
Writing application : VirtualDubMod 1.5.10.2 (build 2540/release)
Writing library : VirtualDubMod build 2540/release
Video
ID : 0
Format : MPEG-4 Visual
Format profile : AdvancedSimple@L5
Format settings, BVOP : Yes
Format settings, QPel : No
Format settings, GMC : No warppoints
Format settings, Matrix : Default (H.263)
Codec ID : XVID
Codec ID/Hint : XviD
Duration : 1h 34mn
Bit rate : 896 Kbps
Width : 640 pixels
Height : 352 pixels
Display aspect ratio : 16:9
Frame rate : 23.976 fps
Resolution : 24 bits
Colorimetry : 4:2:0
Scan type : Progressive
Bits/(Pixel*Frame) : 0.166
Stream size : 605 MiB (82%)
Writing library : XviD 65
Audio
ID : 1
Format : AC-3
Format/Info : Audio Coding 3
Codec ID : 2000
Duration : 1h 34mn
Bit rate mode : Constant
Bit rate : 192 Kbps
Channel(s) : 2 channels
Channel positions : L R
Sampling rate : 48.0 KHz
Stream size : 130 MiB (17%)
Alignment : Split accross interleaves
Interleave, duration : 42 ms (1.00 video frame)
Interleave, preload duration : 500 ms
Скриншот c названием фильма Скриншоты
Скачать

Скачать торрент!

Как скачивать? · Что такое торрент? · Рейтинг и ограничения

Сайт не распространяет и не хранит электронные версии произведений, а лишь предоставляет доступ к создаваемому пользователями каталогу ссылок на торрент-файлы, которые содержат только списки хеш-сумм

[Профиль] [ЛС]
Показать сообщения:    
Ответить на тему

Текущее время: Сегодня 01:48

Часовой пояс: GMT + 4



Вы не можете начинать темы
Вы не можете отвечать на сообщения
Вы не можете редактировать свои сообщения
Вы не можете удалять свои сообщения
Вы не можете голосовать в опросах
Вы не можете прикреплять файлы к сообщениям
Вы не можете скачивать файлы