Цайлифо / Cai Li Fu / Choy Lee Fut (Вай-Так Ло / Wai-Tak Law, Минг-Синг Вонг / Ming-Sing Wong) [2011, Китай, Гонконг, боевик, драма, комедия, HDRip] VO (den904)

Ответить на тему
 
Автор Сообщение

user ®

Стаж: 13 лет

Сообщений: 15071

Пост Пост: #1 от 04-Ноя-2014 13:30

[Цитировать]

Цайлифо / Cai Li Fu / Choy Lee Fut
Страна: Китай, Гонконг
Жанр: боевик, драма, комедия
Год выпуска: 2011
Продолжительность: 01:32:07
Перевод: Одноголосый закадровый (den904)
Cубтитры: нет
Оригинальная аудиодорожка: нет
Режиссер: Вай-Так Ло / Wai-Tak Law, Минг-Синг Вонг / Ming-Sing Wong
В ролях: Саммо Хунг Кам-Бо, Юэнь Ва, Тинь Чи Хунг, Кейн Косуги, Чиа Юнг Лью, Йен Пауэрс, Ю-Ханг То, Эрик Цан, Ка-лок Вонг, Минг-Синг Вонг
Описание: История вращается вокруг двух лучших друзей, которые занимаются боевым искусством. Чтобы узнать другие виды боевых искусств, они пытаются попасть в школу искусства Цайлифо кунг-фу. Когда Цайлифо школе бросают вызов соперники из других школ, друзья делают все, чтобы спасти будущее школы.
Релиз от -
Сэмпл: http://multi-up.com/1010766
Тип релиза: HDRip / BDRip 720p
Контейнер: AVI
Видео: XviD, 930 kbps, 640 х 272 pixels, 24.000 fps
Аудио: MP3, 192 Kbps, 2 channels, 48.0 KHz

MediaInfo
General
Complete name : D:\kirovtorrent\Choy.Lee.Fut.2011.HDRip.745mb.avi
Format : AVI
Format/Info : Audio Video Interleave
File size : 746 MiB
Duration : 1h 32mn
Overall bit rate : 1 132 Kbps
Writing application : VirtualDubMod 1.5.10.3 | www.virtualdub-fr.org || (build 2550/release)
Writing library : VirtualDubMod build 2550/release
Video
ID : 0
Format : MPEG-4 Visual
Format profile : Advanced Simple@L5
Format settings, BVOP : 1
Format settings, QPel : No
Format settings, GMC : No warppoints
Format settings, Matrix : Custom
Codec ID : XVID
Codec ID/Hint : XviD
Duration : 1h 32mn
Bit rate : 930 Kbps
Width : 640 pixels
Height : 272 pixels
Display aspect ratio : 2.35:1
Frame rate : 24.000 fps
Color space : YUV
Chroma subsampling : 4:2:0
Bit depth : 8 bits
Scan type : Progressive
Compression mode : Lossy
Bits/(Pixel*Frame) : 0.223
Stream size : 613 MiB (82%)
Writing library : XviD 73
Audio
ID : 1
Format : MPEG Audio
Format version : Version 1
Format profile : Layer 3
Codec ID : 55
Codec ID/Hint : MP3
Duration : 1h 32mn
Bit rate mode : Constant
Bit rate : 192 Kbps
Channel(s) : 2 channels
Sampling rate : 48.0 KHz
Compression mode : Lossy
Stream size : 127 MiB (17%)
Alignment : Aligned on interleaves
Interleave, duration : 42 ms (1.00 video frame)
Interleave, preload duration : 504 ms
Writing library : LAME3.99r
Encoding settings : -m s -V 4 -q 0 -lowpass 18.6 -b 192
Скриншоты
Скачать

Скачать торрент! Цайлифо / Cai Li Fu / Choy Lee Fut (Вай-Так Ло / Wai-Tak Law, Минг-Синг Вонг / Ming-Sing Wong) [2011, Китай, Гонконг, боевик, драма, комедия, HDRip] VO (den904)

Как скачивать? · Что такое торрент? · Рейтинг и ограничения

Сайт не распространяет и не хранит электронные версии произведений, а лишь предоставляет доступ к создаваемому пользователями каталогу ссылок на торрент-файлы, которые содержат только списки хеш-сумм

[Профиль] [ЛС]
Показать сообщения:    
Ответить на тему

Текущее время: Сегодня 16:15

Часовой пояс: GMT + 4



Вы не можете начинать темы
Вы не можете отвечать на сообщения
Вы не можете редактировать свои сообщения
Вы не можете удалять свои сообщения
Вы не можете голосовать в опросах
Вы не можете прикреплять файлы к сообщениям
Вы не можете скачивать файлы