Вкривь и вкось / Kris Kras (Давид Грифхорст / David Grifhorst) [2014, Голландия, Cемейный, приключения, комедия, SATRip-AVC] VO + Sub Rus + Original Dut

Ответить на тему
 
Автор Сообщение

user ®

Стаж: 7 лет 7 месяцев

Сообщений: 20008

Пост Пост: #1 от 04-Ноя-2014 13:30

[Цитировать]

Вкривь и вкось / Kris Kras
Страна: Голландия
Жанр: Cемейный, приключения, комедия
Год выпуска: 2014
Продолжительность: 01:22:28
Перевод: Одноголосый закадровый
Cубтитры: русские
Оригинальная аудиодорожка: нидерландский
Режиссер: Давид Грифхорст / David Grifhorst
В ролях: Камьель ван Опхем, Йентль Майер, Том Янсен, Ким Питерс, Тьеббо Герритсма, Бинг Вирсма, Мигель Штигтер и др.
Описание: Юрре и Кики - 9-летние близнецы, родители которых развелись и вечно работают, поэтому единственный настоящий дом для брата и сестры, где им хорошо и где им всегда рады - дом дедушки. Но их мать получает работу на Ибице и вместе с детьми переезжает туда. После их отъезда случается несчастье: дедушка получает тяжелую травму и попадает в больницу, а поскольку ухаживать за ним некому, то его решают определить в дом престарелых, а дом продать. И Юрре и Кики, сбежав от матери, отправляются в долгое путешествие через пол-Европы, чтобы спасти и деда, и его дом...
Доп. информация: Фильм взят отсюда [url=http://***/forum/viewtopic.php?t=4849369]http://***/forum/viewtopic.php?t=4849369[/url]
Сэмпл: http://multi-up.com/1010815
Качество видео: SATRip-AVC
Формат видео: MKV
Видео: AVC at 1344 Кбит/сек : 720 x 576 (1.778) at 25.000 fps
Аудио 1: AC-3 at 224 Кбит/сек : 2 канала, 48,0 КГц (Русский)
Аудио 2: AC-3 at 448 Кбит/сек : 6 каналов, 48,0 КГц (Нидерландский)
Формат субтитров: softsub (SRT)
Доп. информация о субтитрах: Русские внешние (Алексей Крылов aka rrrtttsss aka prostotak)
MediaInfo
Общее
Уникальный идентификатор : 180164434553000855202130266854275251078 (0x878A686EE1BD1CB7B25CDAF9CC5D7B86)
Полное имя : F:\С моей озвучкой\Вкривь и вкось\Kris Kras.mkv
Формат : Matroska
Версия формата : Version 4 / Version 2
Размер файла : 1,16 Гбайт
Продолжительность : 1 ч. 22 м.
Общий поток : 2018 Кбит/сек
Дата кодирования : UTC 2014-11-03 20:16:30
Программа кодирования : mkvmerge v6.1.0 ('Old Devil') built on Mar 4 2013 09:10:42
Библиотека кодирования : XviD4PSP 6.0 / 53.6.0
Видео
Идентификатор : 1
Формат : AVC
Формат/Информация : Advanced Video Codec
Профиль формата : High@L4.1
Параметр CABAC формата : Да
Параметр ReFrames формата : 3 кадра
Идентификатор кодека : V_MPEG4/ISO/AVC
Продолжительность : 1 ч. 22 м.
Битрейт : 1344 Кбит/сек
Ширина : 720 пикселей
Высота : 576 пикселей
Соотношение сторон : 16:9
Режим частоты кадров : Постоянный
Частота кадров : 25,000 кадров/сек
Стандарт вещания : PAL
Цветовое пространство : YUV
Субдискретизация насыщенности : 4:2:0
Битовая глубина : 8 бит
Тип развёртки : Прогрессивная
Бит/(Пиксели*Кадры) : 0.130
Размер потока : 770 Мбайт (65%)
Библиотека кодирования : x264 core 116 r2019M 9cc407d
Настройки программы : cabac=1 / ref=3 / deblock=1:-1:-1 / analyse=0x3:0x133 / me=tesa / subme=10 / psy=1 / psy_rd=1.00:0.15 / mixed_ref=1 / me_range=16 / chroma_me=1 / trellis=2 / 8x8dct=1 / cqm=0 / deadzone=21,11 / fast_pskip=1 / chroma_qp_offset=-3 / threads=6 / sliced_threads=0 / nr=0 / decimate=1 / interlaced=0 / bluray_compat=0 / constrained_intra=0 / bframes=3 / b_pyramid=1 / b_adapt=2 / b_bias=0 / direct=3 / weightb=1 / open_gop=0 / weightp=2 / keyint=250 / keyint_min=25 / scenecut=40 / intra_refresh=0 / rc_lookahead=40 / rc=2pass / mbtree=1 / bitrate=1344 / ratetol=1.0 / qcomp=0.60 / qpmin=10 / qpmax=51 / qpstep=4 / cplxblur=20.0 / qblur=0.5 / ip_ratio=1.40 / aq=1:1.00
Default : Да
Forced : Нет
Аудио #1
Идентификатор : 2
Формат : AC-3
Формат/Информация : Audio Coding 3
Расширение режима : CM (complete main)
Параметр Endianness формата : Big
Идентификатор кодека : A_AC3
Продолжительность : 1 ч. 22 м.
Вид битрейта : Постоянный
Битрейт : 224 Кбит/сек
Каналы : 2 канала
Расположение каналов : Front: L R
Частота : 48,0 КГц
Битовая глубина : 16 бит
Метод сжатия : С потерями
Размер потока : 132 Мбайт (11%)
Default : Нет
Forced : Нет
Аудио #2
Идентификатор : 3
Формат : AC-3
Формат/Информация : Audio Coding 3
Расширение режима : CM (complete main)
Параметр Endianness формата : Big
Идентификатор кодека : A_AC3
Продолжительность : 1 ч. 22 м.
Вид битрейта : Постоянный
Битрейт : 448 Кбит/сек
Каналы : 6 каналов
Расположение каналов : Front: L C R, Side: L R, LFE
Частота : 48,0 КГц
Битовая глубина : 16 бит
Метод сжатия : С потерями
Размер потока : 264 Мбайт (22%)
Default : Нет
Forced : Нет
Скриншоты
Скачать

Скачать торрент!

Как скачивать? · Что такое торрент? · Рейтинг и ограничения

Сайт не распространяет и не хранит электронные версии произведений, а лишь предоставляет доступ к создаваемому пользователями каталогу ссылок на торрент-файлы, которые содержат только списки хеш-сумм

[Профиль] [ЛС]
Показать сообщения:    
Ответить на тему

Текущее время: Сегодня 17:45

Часовой пояс: GMT + 4



Вы не можете начинать темы
Вы не можете отвечать на сообщения
Вы не можете редактировать свои сообщения
Вы не можете удалять свои сообщения
Вы не можете голосовать в опросах
Вы не можете прикреплять файлы к сообщениям
Вы не можете скачивать файлы