Секреты войны / Oorlogsgeheimen (Деннис Ботс / Dennis Bots) [2014, Нидерланды, драма, семейный, военный, история, DVDRip] VO (PashaUp)

Ответить на тему
 
Автор Сообщение

user ®

Стаж: 7 лет 7 месяцев

Сообщений: 20008

Пост Пост: #1 от 04-Ноя-2014 13:30

[Цитировать]

Секреты войны / Oorlogsgeheimen
Страна: Нидерланды
Жанр: драма, семейный, военный, история
Год выпуска: 2014
Продолжительность: 01:31:54
Перевод: Одноголосый закадровый PashaUp по переводу Алексея Крылова
Cубтитры: нет
Оригинальная аудиодорожка: нет
Режиссер: Деннис Ботс / Dennis Bots
В ролях: Маас Бронкхойзен, Йос Брауэрс, Пиппа Аллен, Люк Петерс, Нильс Веркойен, Пин Вестендорп, Эва Дуйвестайн, Аннемари Принс, Стефан де Валле, Марго Дамес
Описание: 1943 год. Туур и Ламберт - лучшие друзья. В родной деревне и ее окрестностях для них нет секретов. Но война совсем близко и грозит изменить их жизнь навсегда. Отец Туура и его старший брат участвуют в Сопротивлении. Отец Ламберта - коллаборационист, а старший брат - член гитлерюгенда. Однажды в деревне появляется новая девочка. Свой секрет она открывает только одному из друзей. Этот выбор разделяет мальчишек и не только ставит под угрозу их дружбу, но и приводит к настоящей беде...
Доп. информация:

Сэмпл: http://multi-up.com/1010872
Качество видео: DVDRip
Формат видео: AVI
Видео: 720x304 (2.37:1), 25 fps, XviD MPEG-4 ~1675 kbps avg, 0.31 bit/pixel
Аудио: 48 kHz, AC3 Dolby Digital, 3/2 (L,C,R,l,r) + LFE ch, ~448 kbps
MediaInfo
General
Complete name : C:\Users\Вика\Desktop\Oorlogsgeheimen.2014.DVDRip.avi
Format : AVI
Format/Info : Audio Video Interleave
File size : 1.37 GiB
Duration : 1h 31mn
Overall bit rate : 2 133 Kbps
Writing application : VirtualDubMod 1.5.10.2 (build 2542/release)
Writing library : VirtualDubMod build 2542/release
Video
ID : 0
Format : MPEG-4 Visual
Format profile : Advanced Simple@L5
Format settings, BVOP : No
Format settings, QPel : No
Format settings, GMC : No warppoints
Format settings, Matrix : Custom
Codec ID : XVID
Codec ID/Hint : XviD
Duration : 1h 31mn
Bit rate : 1 676 Kbps
Width : 720 pixels
Height : 304 pixels
Display aspect ratio : 2.35:1
Frame rate : 25.000 fps
Color space : YUV
Chroma subsampling : 4:2:0
Bit depth : 8 bits
Scan type : Progressive
Compression mode : Lossy
Bits/(Pixel*Frame) : 0.306
Stream size : 1.08 GiB (79%)
Writing library : XviD 58
Audio
ID : 1
Format : AC-3
Format/Info : Audio Coding 3
Mode extension : CM (complete main)
Format settings, Endianness : Big
Codec ID : 2000
Duration : 1h 31mn
Bit rate mode : Constant
Bit rate : 448 Kbps
Channel count : 6 channels
Channel positions : Front: L C R, Side: L R, LFE
Sampling rate : 48.0 KHz
Bit depth : 16 bits
Compression mode : Lossy
Stream size : 294 MiB (21%)
Alignment : Split accross interleaves
Interleave, duration : 40 ms (1.00 video frame)
Interleave, preload duration : 500 ms
Language : Nederlands
Скриншоты
Скачать

Скачать торрент!

Как скачивать? · Что такое торрент? · Рейтинг и ограничения

Сайт не распространяет и не хранит электронные версии произведений, а лишь предоставляет доступ к создаваемому пользователями каталогу ссылок на торрент-файлы, которые содержат только списки хеш-сумм

[Профиль] [ЛС]
Показать сообщения:    
Ответить на тему

Текущее время: Сегодня 16:25

Часовой пояс: GMT + 4



Вы не можете начинать темы
Вы не можете отвечать на сообщения
Вы не можете редактировать свои сообщения
Вы не можете удалять свои сообщения
Вы не можете голосовать в опросах
Вы не можете прикреплять файлы к сообщениям
Вы не можете скачивать файлы