Безумная свадьба / Qu\'est-ce qu\'on a fait au Bon Dieu? (Филипп де Шоврон / Philippe de Chauveron) [2014, Франция, комедия, HDRip] Dub

Ответить на тему
 
Автор Сообщение

user ®

Стаж: 7 лет 7 месяцев

Сообщений: 20008

Пост Пост: #1 от 04-Ноя-2014 13:30

[Цитировать]

Безумная свадьба / Qu'est-ce qu'on a fait au Bon Dieu?
Страна: Франция
Жанр: комедия
Год выпуска: 2014
Продолжительность: 01:36:58
Перевод: Профессиональный (дублированный) Лицензия
Cубтитры: нет
Оригинальная аудиодорожка: нет
Режиссер: Филипп де Шоврон / Philippe de Chauveron
В ролях: Кристиан Клавье, Шанталь Лоби, Эри Абиттан, Меди Садун, Фредерик Шо, Нум Дьявара, Фредерик Бель, Джулия Пьятон, Эмили Кан, Элоди Фонтан
Описание: Главные герои фильма, мсье Верней и его жена — добропорядочная буржуазная французская супружеская пара, родители четырех красавиц-дочерей. Как известно, основная проблема всех подобных семей — выдать дочек замуж, чтобы не засиделись в девках. У семейства Верней такой проблемы нет. Три дочери уже нашли свое счастье, вот только мужья, по мнению родителей, подкачали: один — китаец, другой — араб, третий — еврей… Пришло время, и четвертая дочь сообщает радостную весть: она тоже выходит замуж! И ее жених… чернокожий.
Доп. информация:

Сэмпл: http://multi-up.com/1010876
Качество видео: HDRip
Формат видео: AVI
Видео: 720x384 (1.88:1), 24.000 fps, XviD build 50 ~1761 kbps avg, 0.27 bit/pixel
Аудио: 48 kHz, AC3 Dolby Digital, 3/2 (L,C,R,l,r) + LFE ch, ~384 kbps
MediaInfo
General
Complete name : C:\Users\Вика\Desktop\Bezumnaya.Svadjba.2014.HDRip.avi
Format : AVI
Format/Info : Audio Video Interleave
File size : 1.46 GiB
Duration : 1h 36mn
Overall bit rate : 2 155 Kbps
Writing application : VirtualDubMod 1.5.10.2 (build 2540/release)
Writing library : VirtualDubMod build 2540/release
Video
ID : 0
Format : MPEG-4 Visual
Format profile : Advanced Simple@L5
Format settings, BVOP : Yes
Format settings, QPel : No
Format settings, GMC : No warppoints
Format settings, Matrix : Default (MPEG)
Codec ID : XVID
Codec ID/Hint : XviD
Duration : 1h 36mn
Bit rate : 1 761 Kbps
Width : 720 pixels
Height : 384 pixels
Display aspect ratio : 1.85:1
Frame rate : 24.000 fps
Color space : YUV
Chroma subsampling : 4:2:0
Bit depth : 8 bits
Scan type : Progressive
Compression mode : Lossy
Bits/(Pixel*Frame) : 0.265
Stream size : 1.19 GiB (82%)
Writing library : XviD 1.2.1 (UTC 2008-12-04)
Audio
ID : 1
Format : AC-3
Format/Info : Audio Coding 3
Mode extension : CM (complete main)
Format settings, Endianness : Big
Codec ID : 2000
Duration : 1h 36mn
Bit rate mode : Constant
Bit rate : 384 Kbps
Channel count : 6 channels
Channel positions : Front: L C R, Side: L R, LFE
Sampling rate : 48.0 KHz
Bit depth : 16 bits
Compression mode : Lossy
Stream size : 266 MiB (18%)
Alignment : Split accross interleaves
Interleave, duration : 42 ms (1.00 video frame)
Interleave, preload duration : 500 ms
Скриншоты
Скачать

Скачать торрент!

Как скачивать? · Что такое торрент? · Рейтинг и ограничения

Сайт не распространяет и не хранит электронные версии произведений, а лишь предоставляет доступ к создаваемому пользователями каталогу ссылок на торрент-файлы, которые содержат только списки хеш-сумм

[Профиль] [ЛС]
Показать сообщения:    
Ответить на тему

Текущее время: Сегодня 16:15

Часовой пояс: GMT + 4



Вы не можете начинать темы
Вы не можете отвечать на сообщения
Вы не можете редактировать свои сообщения
Вы не можете удалять свои сообщения
Вы не можете голосовать в опросах
Вы не можете прикреплять файлы к сообщениям
Вы не можете скачивать файлы