Моя мама - самолёт (Юлия Аронова) [2013, рисованный мультфильм, WEBRip-AVC]

Ответить на тему
 
Автор Сообщение

user ®

Стаж: 7 лет 7 месяцев

Сообщений: 20008

Пост Пост: #1 от 03-Ноя-2014 17:15

[Цитировать]

Моя мама - самолёт
Страна: Россия
Жанр: рисованный мультфильм
Продолжительность: 00:06:45
Год выпуска: 2013
Режиссёр: Юлия Аронова
Музыка: Лев Слепнер
Стихи: Саша Ночин
Голос: Тим Ханютин
Описание: Добрый и позитивный мультфильм, живописующий фантазию ребёнка про свою маму (разумеется, лучшую в мире).
Доп. информация: Приз за Лучший фильм для детей - Фестиваль анимационного кино в Суздале (2013)
Приз за Лучший фильм - Международный фестиваль "Мультивидение" (2013)
Приз "За высший пилотаж" - Фестиваль анимационных фильмов "КРОК" (2013)
Диплом "За неожиданное воплощение детской фантазии" - Фестиваль "Анимаевка" (2013)
Приз "За оживление детских фантазий" - Фестиваль детского анимационного кино "Золотая Рыбка" (2013)
Приз за Лучший фильм для детей - Фестиваль анимации в Баня-Луке (Босния и Герцеговина)
Приз за Лучший детский фильм - 10-ый Всемирный Фестиваль Анимационных Фильмов (Болгария)
Качество: WEBRip-AVC
Формат: MP4
Видео: 3000 kbps, 1280х720 (16:9), 25.000 fps, MPEG-4 Visual (XviD)
Аудио: 192 kbps, 44.1 kHz, 2 channels, MPEG Audio (MP3)
Субтитры: отсутствуют
Подробные технические данные
GeneralComplete name : Моя мама самолёт (2013).mp4Format : MPEG-4Format profile : Base Media / Version 2Codec ID : mp42File size : 155 MiBDuration : 6mn 45sOverall bit rate mode : VariableOverall bit rate : 3 194 KbpsEncoded date : UTC 2014-08-13 13:01:11Tagged date : UTC 2014-08-13 13:01:11gsst : 0gstd : 405860gssd : B4A7DD822MH1412360800228511gshh : r2---sn-cg07luel.googlevideo.com
VideoID : 1Format : AVCFormat/Info : Advanced Video CodecFormat profile : High@L3.1Format settings, CABAC : YesFormat settings, ReFrames : 1 frameCodec ID : avc1Codec ID/Info : Advanced Video CodingDuration : 6mn 45sBit rate : 3 000 KbpsMaximum bit rate : 6 687 KbpsWidth : 1 280 pixelsHeight : 720 pixelsDisplay aspect ratio : 16:9Frame rate mode : ConstantFrame rate : 25.000 fpsColor space : YUVChroma subsampling : 4:2:0Bit depth : 8 bitsScan type : ProgressiveBits/(Pixel*Frame) : 0.130Stream size : 145 MiB (94%)Tagged date : UTC 2014-08-13 13:01:15
AudioID : 2Format : AACFormat/Info : Advanced Audio CodecFormat profile : LCCodec ID : 40Duration : 6mn 45sBit rate mode : VariableBit rate : 192 KbpsMaximum bit rate : 204 KbpsChannel(s) : 2 channelsChannel positions : Front: L RSampling rate : 44.1 KHzCompression mode : LossyStream size : 9.29 MiB (6%)Title : IsoMedia File Produced by Google, 5-11-2011Encoded date : UTC 2014-08-13 13:01:14Tagged date : UTC 2014-08-13 13:01:15
Скриншоты
Скачать

Скачать торрент!

Как скачивать? · Что такое торрент? · Рейтинг и ограничения

Сайт не распространяет и не хранит электронные версии произведений, а лишь предоставляет доступ к создаваемому пользователями каталогу ссылок на торрент-файлы, которые содержат только списки хеш-сумм

[Профиль] [ЛС]
Показать сообщения:    
Ответить на тему

Текущее время: Сегодня 07:06

Часовой пояс: GMT + 4



Вы не можете начинать темы
Вы не можете отвечать на сообщения
Вы не можете редактировать свои сообщения
Вы не можете удалять свои сообщения
Вы не можете голосовать в опросах
Вы не можете прикреплять файлы к сообщениям
Вы не можете скачивать файлы