7 дней и ночей с Мерилин / My Week with Marilyn (Саймон Кертис / Simon Curtis) [2011, США, Великобритания, Драма, биография, BDRip 1080p] Dub + MVO + Sub (Rus, Eng) + Original Eng

Ответить на тему
 
Автор Сообщение

user ®

Стаж: 7 лет 7 месяцев

Сообщений: 20008

Пост Пост: #1 от 03-Ноя-2014 17:15

[Цитировать]

7 дней и ночей с Мерилин / My Week with Marilyn«Невероятная история из жизни легенды XX века»- Страна: США, Великобритания
Студия: Weinstein Company, BBC Films
Жанр: Драма, биография
Год выпуска: 2011
Продолжительность: 01:38:55-Перевод: Профессиональный (дублированный)
Перевод 2: Профессиональный (многоголосый закадровый)
Cубтитры: русские, английские
Оригинальная аудиодорожка: английский-Режиссер: Саймон Кертис / Simon Curtis-В ролях: Мишель Уильямс, Эдди Редмэйн, Кеннет Брэна, Джуди Денч, Джулия Ормонд, Майкл Кичен, Дюгрей Скотт, Доминик Купер, Зоэ Уонамейкер, Эмма Уотсон-Описание: История великой актрисы Мэрилин Монро, которая в первый раз посетила Лондон и этот приезд связан со съемками в новом фильме. Ее присутствие закручивает переполох в журналистике, она очаровывает всех во круг и естественно юного режиссера Колина. И для Колина эта история чуда, когда для него всего за несколько дней сон превратился в явь. Вот только она разбила не мало сердец. Как закончится их история отношений?-Рейтинг
imdb.com: 7.00 (47 552)
kinopoisk.ru: 7.131 (13319)
MPAA: - лицам до 17 лет обязательно присутствие взрослого- -Тип релиза: BDRip 1080p
Контейнер: MKV-Видео: 11.1 Mbps, 1920*816 (2.35:1), at 23.976 fps, AVC
Аудио: Russian, 1 510 Kbps, 48.0 KHz, 24 bits, 6 channels, DTS
Аудио 2: Russian, 1 510 Kbps, 48.0 KHz, 24 bits, 6 channels, DTS
Аудио 3: English, 1 510 Kbps, 48.0 KHz, 24 bits, 6 channels, DTS
Формат субтитров: softsub (SRT)-

MediaInfo
General
Unique ID : 219945358600286146753794461746708226980 (0xA577EF6AF40C074C96B158714A9223A4)
Complete name : D:\7.дней.и.ночей.с.Мэрилин-My.Week.with.Marilyn.(2011).1080p.BDRip.mkv
Format : Matroska
Format version : Version 2
File size : 10.8 GiB
Duration : 1h 38mn
Overall bit rate : 15.6 Mbps
Movie name : HANSMER
Encoded date : UTC 2012-03-05 21:02:03
Writing application : mkvmerge v5.3.0 ('I could have danced') built on Feb 9 2012 10:38:07
Writing library : libebml v1.2.3 + libmatroska v1.3.0
Video
ID : 1
Format : AVC
Format/Info : Advanced Video Codec
Format profile : High@L4.1
Format settings, CABAC : Yes
Format settings, ReFrames : 5 frames
Codec ID : V_MPEG4/ISO/AVC
Duration : 1h 38mn
Bit rate : 11.1 Mbps
Width : 1 920 pixels
Height : 816 pixels
Display aspect ratio : 2.35:1
Frame rate mode : Constant
Frame rate : 23.976 fps
Color space : YUV
Chroma subsampling : 4:2:0
Bit depth : 8 bits
Scan type : Progressive
Bits/(Pixel*Frame) : 0.295
Stream size : 7.45 GiB (69%)
Title : My.Week.With.Marilyn.2011.BluRay.1080p.x264-CHD
Writing library : x264 core 120 r2146 bcd41db
Encoding settings : cabac=1 / ref=5 / deblock=1:-3:-3 / analyse=0x3:0x113 / me=umh / subme=10 / psy=1 / psy_rd=1.05:0.10 / mixed_ref=1 / me_range=32 / chroma_me=1 / trellis=2 / 8x8dct=1 / cqm=0 / deadzone=21,11 / fast_pskip=0 / chroma_qp_offset=-2 / threads=8 / sliced_threads=0 / nr=0 / decimate=1 / interlaced=0 / bluray_compat=0 / constrained_intra=0 / bframes=6 / b_pyramid=2 / b_adapt=2 / b_bias=0 / direct=3 / weightb=1 / open_gop=0 / weightp=2 / keyint=250 / keyint_min=23 / scenecut=40 / intra_refresh=0 / rc_lookahead=40 / rc=2pass / mbtree=0 / bitrate=11095 / ratetol=1.0 / qcomp=0.70 / qpmin=0 / qpmax=69 / qpstep=4 / cplxblur=20.0 / qblur=0.5 / vbv_maxrate=40000 / vbv_bufsize=40000 / nal_hrd=none / ip_ratio=1.40 / pb_ratio=1.30 / aq=2:0.80
Language : English
Default : Yes
Forced : No
Audio #1
ID : 2
Format : DTS
Format/Info : Digital Theater Systems
Codec ID : A_DTS
Duration : 1h 38mn
Bit rate mode : Constant
Bit rate : 1 510 Kbps
Channel(s) : 6 channels
Channel positions : Front: L C R, Side: L R, LFE
Sampling rate : 48.0 KHz
Bit depth : 24 bits
Compression mode : Lossy
Stream size : 1.04 GiB (10%)
Title : Dub
Language : Russian
Default : Yes
Forced : No
Audio #2
ID : 3
Format : DTS
Format/Info : Digital Theater Systems
Codec ID : A_DTS
Duration : 1h 38mn
Bit rate mode : Constant
Bit rate : 1 510 Kbps
Channel(s) : 6 channels
Channel positions : Front: L C R, Side: L R, LFE
Sampling rate : 48.0 KHz
Bit depth : 24 bits
Compression mode : Lossy
Stream size : 1.04 GiB (10%)
Title : MVO
Language : Russian
Default : No
Forced : No
Audio #3
ID : 4
Format : DTS
Format/Info : Digital Theater Systems
Codec ID : A_DTS
Duration : 1h 38mn
Bit rate mode : Constant
Bit rate : 1 510 Kbps
Channel(s) : 6 channels
Channel positions : Front: L C R, Side: L R, LFE
Sampling rate : 48.0 KHz
Bit depth : 24 bits
Compression mode : Lossy
Stream size : 1.04 GiB (10%)
Language : English
Default : No
Forced : No
Text #1
ID : 5
Format : UTF-8
Codec ID : S_TEXT/UTF8
Codec ID/Info : UTF-8 Plain Text
Language : Russian
Default : No
Forced : No
Text #2
ID : 6
Format : UTF-8
Codec ID : S_TEXT/UTF8
Codec ID/Info : UTF-8 Plain Text
Language : English
Default : No
Forced : No
Menu
00:00:00.000 : en:Chapter 1
00:05:16.775 : en:Chapter 2
00:11:58.259 : en:Chapter 3
00:15:39.730 : en:Chapter 4
00:20:12.336 : en:Chapter 5
00:25:29.111 : en:Chapter 6
00:31:44.903 : en:Chapter 7
00:37:32.292 : en:Chapter 8
00:43:30.775 : en:Chapter 9
00:47:12.496 : en:Chapter 10
00:53:12.022 : en:Chapter 11
01:00:35.173 : en:Chapter 12
01:07:16.407 : en:Chapter 13
01:14:25.961 : en:Chapter 14
01:21:44.775 : en:Chapter 15
01:25:18.947 : en:Chapter 16
01:28:23.924 : en:Chapter 17
01:32:17.699 : en:Chapter 18
Скриншоты -
Скачать

Скачать торрент!

Как скачивать? · Что такое торрент? · Рейтинг и ограничения

Сайт не распространяет и не хранит электронные версии произведений, а лишь предоставляет доступ к создаваемому пользователями каталогу ссылок на торрент-файлы, которые содержат только списки хеш-сумм

[Профиль] [ЛС]
Показать сообщения:    
Ответить на тему

Текущее время: Сегодня 18:05

Часовой пояс: GMT + 4



Вы не можете начинать темы
Вы не можете отвечать на сообщения
Вы не можете редактировать свои сообщения
Вы не можете удалять свои сообщения
Вы не можете голосовать в опросах
Вы не можете прикреплять файлы к сообщениям
Вы не можете скачивать файлы