Рок на века / Rock of Ages (Адам Шенкман / Adam Shankman) [2012, США, мюзикл, мелодрама, комедия, BDRemux 1080p] [Theatrical Cut] Dub + Original Eng + Sub Rus, Eng

Ответить на тему
 
Автор Сообщение

user ®

Стаж: 7 лет 7 месяцев

Сообщений: 20008

Пост Пост: #1 от 03-Ноя-2014 17:15

[Цитировать]

Рок на века
Rock of Ages / Theatrical Cut
- Страна: США | USA
Жанр: мюзикл, мелодрама, комедия
Год выпуска: 2012
Продолжительность: 2:03:25
Перевод: Профессиональный (дублированный)
+ Оригинальная звуковая дорожка | English
Cубтитры: русские (форсированные, на песни, полные), английские (полные SDH)-Режиссер: Адам Шенкман / Adam Shankman-В ролях: Джулианна Хаф, Диего Бонета, Расселл Брэнд, Пол Джаматти, Кэтрин Зета-Джонс, Малин Акерман, Мэри Джей Блайдж, Алек Болдуин, Том Круз, Дакота Сэйдж Грант.-Описание: 1987 год, Лос-Анджелес. Мечтающая о карьере певицы юная Шерри, героиня фильма Рок на века, оставляет Канзас и отправляется в Голливуд, чтобы отвоевать место на музыкальном Олимпе. Но фабрика грез неприветливо встречает девушку: на станции у нее крадут вещи, на сцене никто не ждет, а работа есть только в рок-клубе The Bourbon Room, да и та – официанткой. В это заведение Шерри приводит ее новый знакомый Дрю, помощник бармена, честолюбивый начинающий музыкант, к которому девушка вскоре начинает испытывать симпатию.-Тип релиза: BDRemux 1080p | CEE
Контейнер: MKV | Sample
Видео: 1920x1080 (16:9), 23.976 fps, High Profile 4.1 ~21916 kbps
Аудио 1: Russian 48 kHz, 5.1 AC3 Dolby Digital Audio, 640.00 kbps | Дубляж
Аудио 2: Ukrainian 48 kHz, 5.1 AC3 Dolby Digital Audio, 640.00 kbps | Дубляж
Аудио 3: English 48 kHz, 5.1 DTS-HD Master Audio, 3954.00 kbps | 48 kHz, 5.1 DTS Core, 1509.00 kbps | Original

Инфо
Формат : Matroska
Версия формата : Version 4 / Version 2
Размер файла : 23,4 Гбайт
Продолжительность : 2 ч. 3 м.
Режим общего битрейта : Переменный
Общий поток : 27,2 Мбит/сек
Название фильма : Рок на века / Rock of Ages 2012 Theatrical Cut
Дата кодирования : UTC 2014-11-02 15:47:53
Программа кодирования : mkvmerge v6.6.0 ('The Edge Of The In Between') built on Dec 1 2013 17:55:00
Библиотека кодирования : libebml v1.3.0 + libmatroska v1.4.1
Видео
Идентификатор : 1
Формат : AVC
Формат/Информация : Advanced Video Codec
Профиль формата : High@L4.1
Параметр CABAC формата : Да
Параметр ReFrames формата : 2 кадра
Идентификатор кодека : V_MPEG4/ISO/AVC
Продолжительность : 2 ч. 3 м.
Вид битрейта : Переменный
Ширина : 1920 пикселей
Высота : 1080 пикселей
Соотношение сторон : 16:9
Режим частоты кадров : Постоянный
Частота кадров : 23,976 кадра/сек
Цветовое пространство : YUV
Субдискретизация насыщенности : 4:2:0
Битовая глубина : 8 бит
Тип развёртки : Прогрессивная
Заголовок : Blu-ray Remux CEE
Язык : English
Default : Да
Forced : Нет
Аудио #1
Идентификатор : 2
Формат : AC-3
Формат/Информация : Audio Coding 3
Расширение режима : CM (complete main)
Параметр Endianness формата : Big
Идентификатор кодека : A_AC3
Продолжительность : 2 ч. 3 м.
Вид битрейта : Постоянный
Битрейт : 640 Кбит/сек
Каналы : 6 каналов
Расположение каналов : Front: L C R, Side: L R, LFE
Частота : 48,0 КГц
Битовая глубина : 16 бит
Метод сжатия : С потерями
Размер потока : 565 Мбайт (2%)
Заголовок : Dub
Язык : Russian
Default : Да
Forced : Нет
Аудио #2
Идентификатор : 3
Формат : AC-3
Формат/Информация : Audio Coding 3
Расширение режима : CM (complete main)
Параметр Endianness формата : Big
Идентификатор кодека : A_AC3
Продолжительность : 2 ч. 3 м.
Вид битрейта : Постоянный
Битрейт : 640 Кбит/сек
Каналы : 6 каналов
Расположение каналов : Front: L C R, Side: L R, LFE
Частота : 48,0 КГц
Битовая глубина : 16 бит
Метод сжатия : С потерями
Размер потока : 565 Мбайт (2%)
Заголовок : Dub
Язык : Ukrainian
Default : Нет
Forced : Нет
Аудио #3
Идентификатор : 4
Формат : DTS
Формат/Информация : Digital Theater Systems
Профиль формата : MA / Core
Режим : 16
Параметр Endianness формата : Big
Идентификатор кодека : A_DTS
Продолжительность : 2 ч. 3 м.
Вид битрейта : Переменный
Битрейт : Неизвестно / 1509 Кбит/сек
Каналы : 6 каналов
Расположение каналов : Front: L C R, Side: L R, LFE
Частота : 48,0 КГц
Битовая глубина : 24 бит
Метод сжатия : Без потерь / Lossy
Заголовок : Original
Язык : English
Default : Нет
Forced : Нет
Текст #1
Идентификатор : 5
Формат : UTF-8
Идентификатор кодека : S_TEXT/UTF8
Идентификатор кодека/Информация : UTF-8 Plain Text
Заголовок : Forced
Язык : Russian
Default : Да
Forced : Нет
Текст #2
Идентификатор : 6
Формат : UTF-8
Идентификатор кодека : S_TEXT/UTF8
Идентификатор кодека/Информация : UTF-8 Plain Text
Заголовок : Songs
Язык : Russian
Default : Нет
Forced : Нет
Текст #3
Идентификатор : 7
Формат : UTF-8
Идентификатор кодека : S_TEXT/UTF8
Идентификатор кодека/Информация : UTF-8 Plain Text
Заголовок : Full
Язык : Russian
Default : Нет
Forced : Нет
Текст #4
Идентификатор : 8
Формат : UTF-8
Идентификатор кодека : S_TEXT/UTF8
Идентификатор кодека/Информация : UTF-8 Plain Text
Заголовок : Full SDH
Язык : English
Default : Нет
Forced : Нет
Меню
00:00:00.000 : en:Chapter 00
00:11:04.205 : en:Chapter 01
00:19:52.691 : en:Chapter 02
00:32:12.722 : en:Chapter 03
00:41:51.342 : en:Chapter 04
00:51:37.260 : en:Chapter 05
00:59:43.913 : en:Chapter 06
01:10:37.900 : en:Chapter 07
01:20:36.540 : en:Chapter 08
01:30:10.905 : en:Chapter 09
01:41:32.669 : en:Chapter 10
01:51:15.752 : en:Chapter 11
01:56:23.476 : en:Chapter 12
Скриншоты
Скачать

Скачать торрент!

Как скачивать? · Что такое торрент? · Рейтинг и ограничения

Сайт не распространяет и не хранит электронные версии произведений, а лишь предоставляет доступ к создаваемому пользователями каталогу ссылок на торрент-файлы, которые содержат только списки хеш-сумм

[Профиль] [ЛС]
Показать сообщения:    
Ответить на тему

Текущее время: Сегодня 07:06

Часовой пояс: GMT + 4



Вы не можете начинать темы
Вы не можете отвечать на сообщения
Вы не можете редактировать свои сообщения
Вы не можете удалять свои сообщения
Вы не можете голосовать в опросах
Вы не можете прикреплять файлы к сообщениям
Вы не можете скачивать файлы