Правда Майка Тайсона / Mike Tyson Undisputed Truth (Спайк Ли / Spike Lee) [2013, США, комедия, HDTV 1080i] MVO + Sub Rus + Original Eng

Ответить на тему
 
Автор Сообщение

user ®

Стаж: 7 лет 7 месяцев

Сообщений: 20008

Пост Пост: #1 от 03-Ноя-2014 17:15

[Цитировать]

Правда Майка Тайсона / Mike Tyson Undisputed Truth
Страна: США
Студия: HBO Films
Жанр: комедия
Год выпуска: 2013
Продолжительность: 01:22:00
Перевод: Профессиональный (многоголосый закадровый)
Cубтитры: русские
Оригинальная аудиодорожка: английский
Режиссер: Спайк Ли / Spike Lee
В ролях: Майк Тайсон
Описание: Его называли «Железный Майк». Непобедимый боксер, который потерпел поражение от самого грозного соперника – от жизни. Он потерял тренера и лучшего друга, развелся с женой и сел в тюрьму за преступление, которого не совершал. Тайсон, каким его не знал еще никто!
Текст читают: Анатолий Кузичев, Дмитрий Полянский, Анна Грачева
Сэмпл: http://multi-up.com/1010496
Тип релиза: HDTV 1080i
Контейнер: TS
Видео: AVC, 1920х1080, 16:9, 6702 Кбит/сек, 25 fps
Аудио: (русский) MPEG Audio, 192 Кбит/сек, 48 КГц, 2 канала
Аудио 2: (english) MPEG Audio, 192 Кбит/сек, 48 КГц, 2 канала
Формат субтитров: Sub page 888
MediaInfo
Общее
Идентификатор : 16 (0x10)
Полное имя : Mike Tyson Undisputed Truth.ts
Формат : MPEG-TS
Размер файла : 4,30 Гбайт
Продолжительность : 1 ч. 22 м.
Режим общего битрейта : Переменный
Общий поток : 7458 Кбит/сек
Видео
Идентификатор : 1812 (0x714)
Идентификатор меню : 812 (0x32C)
Формат : AVC
Формат/Информация : Advanced Video Codec
Профиль формата : High@L4.0
Параметр CABAC формата : Да
Параметр ReFrames формата : 4 кадра
Идентификатор кодека : 27
Продолжительность : 1 ч. 22 м.
Битрейт : 6702 Кбит/сек
Ширина : 1920 пикселей
Высота : 1080 пикселей
Соотношение сторон : 16:9
Частота кадров : 25,000 кадров/сек
Стандарт вещания : PAL
Цветовое пространство : YUV
Субдискретизация насыщенности : 4:2:0
Битовая глубина : 8 бит
Тип развёртки : MBAFF
Бит/(Пиксели*Кадры) : 0.129
Размер потока : 3,87 Гбайт (90%)
Основные цвета : BT.709
Характеристики трансфера : BT.709
Коэффициенты матрицы : BT.709
Аудио #1
Идентификатор : 2812 (0xAFC)
Идентификатор меню : 812 (0x32C)
Формат : MPEG Audio
Версия формата : Version 1
Профиль формата : Layer 2
Режим : Joint stereo
Расширение режима : Intensity Stereo + MS Stereo
Идентификатор кодека : 4
Продолжительность : 1 ч. 22 м.
Вид битрейта : Постоянный
Битрейт : 192 Кбит/сек
Каналы : 2 канала
Частота : 48,0 КГц
Метод сжатия : С потерями
Задержка видео : 170 мс.
Размер потока : 113 Мбайт (3%)
Язык : std
Язык, дополнительно : Clean effects
Аудио #2
Идентификатор : 3812 (0xEE4)
Идентификатор меню : 812 (0x32C)
Формат : MPEG Audio
Версия формата : Version 1
Профиль формата : Layer 2
Режим : Joint stereo
Расширение режима : Intensity Stereo + MS Stereo
Идентификатор кодека : 4
Продолжительность : 1 ч. 22 м.
Вид битрейта : Постоянный
Битрейт : 192 Кбит/сек
Каналы : 2 канала
Частота : 48,0 КГц
Метод сжатия : С потерями
Задержка видео : 170 мс.
Размер потока : 113 Мбайт (3%)
Язык : English
Язык, дополнительно : Clean effects
Текст
Идентификатор : 63 (0x3F)-100
Идентификатор меню : 812 (0x32C)
Формат : Teletext
Меню
Идентификатор : 812 (0x32C)
Идентификатор меню : 812 (0x32C)
Продолжительность : 1 ч. 22 м.
Список : 1812 (0x714) (AVC) / 2812 (0xAFC) (MPEG Audio, std) / 3812 (0xEE4) (MPEG Audio, English) / 63 (0x3F) ()
Язык : / std / English
Скриншоты
Скачать

Скачать торрент!

Как скачивать? · Что такое торрент? · Рейтинг и ограничения

Сайт не распространяет и не хранит электронные версии произведений, а лишь предоставляет доступ к создаваемому пользователями каталогу ссылок на торрент-файлы, которые содержат только списки хеш-сумм

[Профиль] [ЛС]
Показать сообщения:    
Ответить на тему

Текущее время: Сегодня 16:34

Часовой пояс: GMT + 4



Вы не можете начинать темы
Вы не можете отвечать на сообщения
Вы не можете редактировать свои сообщения
Вы не можете удалять свои сообщения
Вы не можете голосовать в опросах
Вы не можете прикреплять файлы к сообщениям
Вы не можете скачивать файлы