Неваляшка 2 (Анарио Мамедов) [2014, Комедия, DVB]

Ответить на тему
 
Автор Сообщение

user ®

Стаж: 7 лет 7 месяцев

Сообщений: 20008

Пост Пост: #1 от 03-Ноя-2014 17:15

[Цитировать]

Неваляшка 2
Год выпуска: 2014
Производство: Россия
Жанр: Комедия
Продолжительность: 01:25:13
Субтитры: нет
Режиссёр: Анарио Мамедов
В ролях: Павел Деревянко, Даниил Меркулов, Дмитрий Митюрич, Николай Хмелёв (II), Александр Песков
Описание: История современного рыцаря, для которого честь и данное им обещание, прежде всего.Он был известным боксером, о нем говорил весь мир. В свое время он отказался от миллиона, ради собственных принципов. И сейчас он отошел от дел и работает скромным охранником в ювелирном магазине. Он честен, благороден и, практически не победим. За это и получил свое прозвище - Неваляшка. Но все меняется, когда Неваляшка влюбляется в Катю. Тем более, что ее незаслуженно обидели. Постоять за честь "прекрасной дамы" становится для него главной целью, ради которой он готов пойти на все. Ему даже приходится вернуться на ринг и участвовать в турнире по боям без правил, чтобы найти обидчика Кати, ставя под угрозу собственное здоровье и даже жизнь.

Качество: DVB
Контейнер: MPEG -PS
Видео: MPEG2 Video 785х576 @ 720x576 (4:3) 25.00fps ~5787 Kbps (0.558 bit/pixel)
Аудио: MPEG Audio 48000Hz 2 channels 192 Кбит/сек
Сторонней рекламы нет!
MediaInfo
ОбщееПолное имя : D:\Неваляшка 2 2014_DVB_by_Серый1779_&_wowa63.mpgФормат : MPEG-PSРазмер файла : 3,65 ГбайтПродолжительность : 1 ч. 25 м.Общий поток : 6101 Кбит/сек
ВидеоИдентификатор : 224 (0xE0)Формат : MPEG VideoВерсия формата : Version 2Профиль формата : Main@MainПараметр BVOP формата : ДаПараметр матрицы формата : По умолчаниюПродолжительность : 1 ч. 25 м.Вид битрейта : ПеременныйБитрейт : 5787 Кбит/секНоминальный битрейт : 7000 Кбит/секШирина : 720 пикс.Высота : 576 пикс.Соотношение сторон : 4:3Частота кадров : 25,000 кадр/секСтандарт вещания : PALЦветовое пространство : YUVПодвыборка цветности : 4:2:0Битовая глубина : 8 битТип развёртки : ЧересстрочнаяПорядок развёртки : Верхнее поле первоеМетод сжатия : С потерямиБит/(Пиксели*Кадры) : 0.558Размер потока : 3,46 Гбайт (95%)
АудиоИдентификатор : 192 (0xC0)Формат : MPEG AudioВерсия формата : Version 1Профиль формата : Layer 2Продолжительность : 1 ч. 25 м.Вид битрейта : ПостоянныйБитрейт : 192 Кбит/секКаналы : 2 каналаЧастота : 48,0 КГцМетод сжатия : С потерямиРазмер потока : 118 Мбайт (3%)
Запись:
Монтаж и оформление:
Раздача группы:
Скриншот c названием фильма Скриншоты
Скачать

Скачать торрент!

Как скачивать? · Что такое торрент? · Рейтинг и ограничения

Сайт не распространяет и не хранит электронные версии произведений, а лишь предоставляет доступ к создаваемому пользователями каталогу ссылок на торрент-файлы, которые содержат только списки хеш-сумм

[Профиль] [ЛС]
Показать сообщения:    
Ответить на тему

Текущее время: Сегодня 14:10

Часовой пояс: GMT + 4



Вы не можете начинать темы
Вы не можете отвечать на сообщения
Вы не можете редактировать свои сообщения
Вы не можете удалять свои сообщения
Вы не можете голосовать в опросах
Вы не можете прикреплять файлы к сообщениям
Вы не можете скачивать файлы