Секреты войны / Oorlogsgeheimen (Деннис Ботс / Dennis Bots) [2014, Голландия, драма, военный, семейный, DVDRip] Sub Rus + Original Dut

Ответить на тему
 
Автор Сообщение

user ®

Стаж: 7 лет 7 месяцев

Сообщений: 20008

Пост Пост: #1 от 03-Ноя-2014 17:15

[Цитировать]

Секреты войны / Oorlogsgeheimen
Страна: Голландия
Жанр: драма, военный, семейный
Год выпуска: 2014
Продолжительность: 01:31:54
Перевод: Субтитры (Алексей Крылов aka rrrtttsss aka prostotak)
Cубтитры: русские
Оригинальная аудиодорожка: нидерландский
Режиссер: Деннис Ботс / Dennis Bots
В ролях: Маас Бронкхойзен, Йос Брауэрс, Пиппа Аллен, Люк Петерс, Нильс Веркойен, Пин Вестендорп, Эва Дуйвестайн, Аннемари Принс, Стефан де Валле, Марго Дамес и др.
Описание: 1943 год. Туур и Ламберт - лучшие друзья. В родной деревне и ее окрестностях для них нет секретов. Но война совсем близко и грозит изменить их жизнь навсегда. Отец Туура и его старший брат участвуют в Сопротивлении. Отец Ламберта - коллаборационист, а старший брат - член гитлерюгенда. Однажды в деревне появляется новая девочка. Свой секрет она открывает только одному из друзей. Этот выбор разделяет мальчишек и не только ставит под угрозу их дружбу, но и приводит к настоящей беде...
Доп. информация: Информация о фильме на IMDB - http://www.imdb.com/title/tt2371158/
Сэмпл: http://multi-up.com/1010597
Качество видео: DVDRip
Формат видео: AVI
Видео: 720x304 (2.37:1), 25 fps, XviD MPEG-4 ~1675 kbps avg, 0.31 bit/pixel
Аудио: 48 kHz, AC3 Dolby Digital, 3/2 (L,C,R,l,r) + LFE ch, ~448.00 kbps avg
Формат субтитров: softsub (SRT)
MediaInfo
Общее
Полное имя : H:\SEED\Oorlogsgeheimen (2014) rus\Oorlogsgeheimen (2014) rus.avi
Формат : AVI
Формат/Информация : Audio Video Interleave
Размер файла : 1,37 Гбайт
Продолжительность : 1 ч. 31 м.
Общий поток : 2130 Кбит/сек
Программа кодирования : VirtualDubMod 1.5.4.1 (build 2178/release)
Библиотека кодирования : VirtualDubMod build 2178/release
Видео
Идентификатор : 0
Формат : MPEG-4 Visual
Профиль формата : Advanced Simple@L5
Параметр BVOP формата : Нет
Параметр QPel формата : Нет
Параметр GMC формата : Без точки перехода
Параметр матрицы формата : Выборочная
Идентификатор кодека : XVID
Идентификатор кодека/Подсказка : XviD
Продолжительность : 1 ч. 31 м.
Битрейт : 1676 Кбит/сек
Ширина : 720 пикселей
Высота : 304 пикселя
Соотношение сторон : 2,35:1
Частота кадров : 25,000 кадров/сек
Цветовое пространство : YUV
Субдискретизация насыщенности : 4:2:0
Битовая глубина : 8 бит
Тип развёртки : Прогрессивная
Метод сжатия : С потерями
Бит/(Пиксели*Кадры) : 0.306
Размер потока : 1,08 Гбайт (79%)
Библиотека кодирования : XviD 58
Аудио
Идентификатор : 1
Формат : AC-3
Формат/Информация : Audio Coding 3
Расширение режима : CM (complete main)
Параметр Endianness формата : Big
Идентификатор кодека : 2000
Продолжительность : 1 ч. 31 м.
Вид битрейта : Постоянный
Битрейт : 448 Кбит/сек
Каналы : 6 каналов
Расположение каналов : Front: L C R, Side: L R, LFE
Частота : 48,0 КГц
Битовая глубина : 16 бит
Метод сжатия : С потерями
Размер потока : 294 Мбайт (21%)
Выравнивание : Разделение по промежуткам
Продолжительность промежутка : 96 мс. (2,40 видеокадра)
Время предзагрузки промежутка : 96 мс.
Язык : Nederlands
Образец субтитров
1
00:02:19,520 --> 00:02:21,488
Один-ноль.
- Один-один!
2
00:02:22,480 --> 00:02:23,720
Ламберт!
3
00:02:25,200 --> 00:02:27,771
Туур, ты опять меня обгоняешь!
- Я гораздо быстрее.
4
00:02:27,960 --> 00:02:29,371
Давай, догони меня.
5
00:02:29,560 --> 00:02:31,244
Я тебя поймаю.
6
00:02:39,240 --> 00:02:41,242
Стой, если такой смелый.
7
00:02:41,920 --> 00:02:43,570
Я убью тебя.
8
00:02:46,640 --> 00:02:48,324
Ламберт!
9
00:02:51,560 --> 00:02:54,530
Спорим, подниму в один присест.
- Докажи.
10
00:02:55,560 --> 00:02:56,925
Эй, глянь-ка.
11
00:03:01,200 --> 00:03:02,690
Стой где стоял!
12
00:03:02,880 --> 00:03:05,884
Что ты тут делаешь?
- Просто хочу пройти.
13
00:03:06,080 --> 00:03:07,241
Со своей кривой ногой?
14
00:03:07,440 --> 00:03:08,885
А ну, прекрати!
- Заткнись, червяк!
15
00:03:09,080 --> 00:03:11,128
Проваливай в свою деревню.
16
00:03:14,520 --> 00:03:17,046
Это просто деревяшка.
- Беги, Ламберт!
17
00:03:17,800 --> 00:03:19,723
Знаешь, что мы с тобой сделаем?
18
00:03:19,920 --> 00:03:23,447
И что мы с ним сделаем?
- Привяжем к рельсам.
19
00:03:29,400 --> 00:03:31,448
Я вас догоню, гаденыши.
20
00:03:33,800 --> 00:03:35,848
Быстро он бегает.
Скриншот c названием фильма Скриншоты
Скачать

Скачать торрент!

Как скачивать? · Что такое торрент? · Рейтинг и ограничения

Сайт не распространяет и не хранит электронные версии произведений, а лишь предоставляет доступ к создаваемому пользователями каталогу ссылок на торрент-файлы, которые содержат только списки хеш-сумм

[Профиль] [ЛС]
Показать сообщения:    
Ответить на тему

Текущее время: Сегодня 06:13

Часовой пояс: GMT + 4



Вы не можете начинать темы
Вы не можете отвечать на сообщения
Вы не можете редактировать свои сообщения
Вы не можете удалять свои сообщения
Вы не можете голосовать в опросах
Вы не можете прикреплять файлы к сообщениям
Вы не можете скачивать файлы