Космический Новый Год / cosmo new year (Антон Королюк, Артём Бизяев) [2011, анимационный фильм, DVDRip]

Ответить на тему
 
Автор Сообщение

user ®

Стаж: 7 лет 7 месяцев

Сообщений: 20008

Пост Пост: #1 от 03-Ноя-2014 01:40

[Цитировать]

Космический Новый Год / cosmo new year
Страна: Россия
Жанр: анимационный фильм
Продолжительность: 00:05:25
Год выпуска: 2011
Русские субтитры: нет
Режиссёр: Антон Королюк, Артём Бизяев
Описание: Новый Год – самый веселый праздник! Особенно весело его встречать в открытом космосе…
Доп. информация: Фильм-участник многочисленных кинофестивалей:
- Открытый Фестиваль студенческих и дебютных фильмов «Святая Анна», Москва (Россия), 2012
- Открытый фестиваль анимационного кино, Суздаль (Россия), 2012
- Большой фестиваль мультфильмов, Москва (Россия), 2012
- Московский международный кинофестиваль (ММКФ), Москва (Россия), 2012
- Фестиваль отечественного кино ''Московская премьера'', Москва (Россия), 2012
- Фестиваль Фестивалей, Санкт Петербург (Россия), 2012
- Международный фестиваль анимационных фильмов «КРОК», Киев (Украина), 2012
- Международный фестиваль-практикум киношкол “Кинопроба”, Екатеринбург (Россия), 2011.
Качество: DVDRip
Формат: AVI
Видео: XVID, 720x400, 25fps, 1207kbps
Аудио: MPEG Layer 3, 48kHz, 2 ch, 192kbps
Субтитры: отсутствуют
Подробные технические данные
Полное имя : Cosmo New Year.aviФормат : AVIФормат/Информация : Audio Video InterleaveРазмер файла : 54,7 МбайтПродолжительность : 5 м. 25 с.Общий поток : 1409 Кбит/секПрограмма кодирования : VirtualDubMod 1.5.10.2 (build 2540/release)Библиотека кодирования : VirtualDubMod build 2540/release
ВидеоИдентификатор : 0Формат : MPEG-4 VisualПрофиль формата : Advanced Simple@L5Параметр BVOP формата : 1Параметр QPel формата : НетПараметр GMC формата : Без точки переходаПараметр матрицы формата : Default (H.263)Идентификатор кодека : XVIDИдентификатор кодека/Подсказка : XviDПродолжительность : 5 м. 25 с.Битрейт : 1207 Кбит/секШирина : 720 пикселейВысота : 400 пикселейСоотношение сторон : 16:9Частота кадров : 25,000 кадров/секЦветовое пространство : YUVСубдискретизация насыщенности : 4:2:0Битовая глубина : 8 битТип развёртки : ПрогрессивнаяМетод сжатия : С потерямиБит/(Пиксели*Кадры) : 0.168Размер потока : 46,8 Мбайт (86%)Библиотека кодирования : XviD 1.2.1 (UTC 2008-12-04)
АудиоИдентификатор : 1Формат : MPEG AudioВерсия формата : Version 1Профиль формата : Layer 3Режим : Joint stereoРасширение режима : MS StereoИдентификатор кодека : 55Идентификатор кодека/Подсказка : MP3Продолжительность : 5 м. 25 с.Вид битрейта : ПостоянныйБитрейт : 192 Кбит/секКаналы : 2 каналаЧастота : 48,0 КГцМетод сжатия : С потерямиРазмер потока : 7,45 Мбайт (14%)Выравнивание : Соединение по промежуткамПродолжительность промежутка : 40 мс. (1,00 видеокадр)Время предзагрузки промежутка : 504 мс.Библиотека кодирования : LAME3.98rНастройки программы : -m j -V 4 -q 2 -lowpass 18.6 -b 192
Скриншоты
Скачать

Скачать торрент!

Как скачивать? · Что такое торрент? · Рейтинг и ограничения

Сайт не распространяет и не хранит электронные версии произведений, а лишь предоставляет доступ к создаваемому пользователями каталогу ссылок на торрент-файлы, которые содержат только списки хеш-сумм

[Профиль] [ЛС]
Показать сообщения:    
Ответить на тему

Текущее время: Сегодня 20:34

Часовой пояс: GMT + 4



Вы не можете начинать темы
Вы не можете отвечать на сообщения
Вы не можете редактировать свои сообщения
Вы не можете удалять свои сообщения
Вы не можете голосовать в опросах
Вы не можете прикреплять файлы к сообщениям
Вы не можете скачивать файлы