Синема (Лиана Элиава) [1977, Драма, SATRip]

Ответить на тему
 
Автор Сообщение

user ®

Стаж: 7 лет 7 месяцев

Сообщений: 20008

Пост Пост: #1 от 03-Ноя-2014 01:40

[Цитировать]

Синема
Жанр: Драма
Год выпуска: 1977
Продолжительность: 01:09:20
Режиссёр: Лиана Элиава

В ролях: Мурман Джинория, Гурам Пирцхалава, Кетеван Кобулия, Авто Кереселидзе, Гурам Лордкипанидзе, Шалва Херхеулидзе, Тенгиз Арчвадзе, Ариадна Шенгелая, Лия Элиава, Тамара Цицишвили, Рамаз Чхиквадзе, Александр (Сандро) Джалиашвили, Тамара Твалиашвили, Читолия Чхеидзе, Дмитрий Кипиани, Дареджан Харшиладзе, Галина Берадзе
Описание: Вернувшись из Парижа, Сосико Чолокашвили знакомит своих соотечественников с киноаппаратом. Для создания национального кинематографа молодой человек обращается к городским властям и меценатам, но, не получив поддержки, вместе с другом организовывает компанию по сбору средств...
Доп. информация: Этот фильм - еще одно подтверждение бессмертия кино, и в то же время грустный пример подтверждения библейской истины: нет пророка в своем отечестве. Фильм принимал участие в Международном кинофестивале 1979 года в Венеции при вмешательстве организаторов - Карло Лидзани и Альберто Моравиа, и, поскольку в том году призы не присуждались, был награжден золотой медалью за участие. Он также проходил вне конкурса на Международных кинофестивалях в Мельбурне, Салониках и Вене и отмечен дипломами этих фестивалей.
Релиз:
Исходным материалом послужила следующая раздача Cheef mate
скрытый текст
[url=http://***/forum/viewtopic.php?t=4858763]http://***/forum/viewtopic.php?t=4858763[/url]
Рип выполнен: pmv
Сэмпл: http://multi-up.com/1010536
Качество видео: SATRip
Формат видео: AVI
Видео: 720x544 (1.32:1), 25 fps, XviD build 73 ~2073 kbps avg, 0.21 bit/pixel
Аудио: 48 kHz, MPEG Layer 3, 2 ch, ~128.00 kbps avg
MediaInfo
Format : AVI
Format/Info : Audio Video Interleave
File size : 1.07 GiB
Duration : 1h 9mn
Overall bit rate : 2 211 Kbps
Writing library : VirtualDub build 35576/release
Video
ID : 0
Format : MPEG-4 Visual
Format profile : Advanced Simple@L5
Format settings, BVOP : 2
Format settings, QPel : No
Format settings, GMC : No warppoints
Format settings, Matrix : Default (H.263)
Codec ID : XVID
Codec ID/Hint : XviD
Duration : 1h 9mn
Bit rate : 2 073 Kbps
Width : 720 pixels
Height : 544 pixels
Display aspect ratio : 4:3
Frame rate : 25.000 fps
Color space : YUV
Chroma subsampling : 4:2:0
Bit depth : 8 bits
Scan type : Progressive
Compression mode : Lossy
Bits/(Pixel*Frame) : 0.212
Stream size : 1.00 GiB (94%)
Writing library : XviD 73
Audio
ID : 1
Format : MPEG Audio
Format version : Version 1
Format profile : Layer 3
Mode : Joint stereo
Mode extension : MS Stereo
Codec ID : 55
Codec ID/Hint : MP3
Duration : 1h 9mn
Bit rate mode : Constant
Bit rate : 128 Kbps
Channel(s) : 2 channels
Sampling rate : 48.0 KHz
Compression mode : Lossy
Stream size : 63.5 MiB (6%)
Alignment : Split accross interleaves
Interleave, duration : 40 ms (1.00 video frame)
Interleave, preload duration : 500 ms
Скриншот c названием фильма Скриншоты
Скачать

Скачать торрент!

Как скачивать? · Что такое торрент? · Рейтинг и ограничения

Сайт не распространяет и не хранит электронные версии произведений, а лишь предоставляет доступ к создаваемому пользователями каталогу ссылок на торрент-файлы, которые содержат только списки хеш-сумм

[Профиль] [ЛС]
Показать сообщения:    
Ответить на тему

Текущее время: Сегодня 05:59

Часовой пояс: GMT + 4



Вы не можете начинать темы
Вы не можете отвечать на сообщения
Вы не можете редактировать свои сообщения
Вы не можете удалять свои сообщения
Вы не можете голосовать в опросах
Вы не можете прикреплять файлы к сообщениям
Вы не можете скачивать файлы