Неваляшка 2 (Анарио Мамедов) [2014, Комедия, SATRip]

Ответить на тему
 
Автор Сообщение

user ®

Стаж: 7 лет 7 месяцев

Сообщений: 20008

Пост Пост: #1 от 03-Ноя-2014 01:40

[Цитировать]

Неваляшка 2
Год выпуска: 2014
Производство: Россия
Жанр: Комедия
Продолжительность: 01:25:13
Субтитры: нет
Режиссёр: Анарио Мамедов
В ролях: Павел Деревянко, Даниил Меркулов, Дмитрий Митюрич, Николай Хмелёв (II), Александр Песков
Описание: История современного рыцаря, для которого честь и данное им обещание, прежде всего.Он был известным боксером, о нем говорил весь мир. В свое время он отказался от миллиона, ради собственных принципов. И сейчас он отошел от дел и работает скромным охранником в ювелирном магазине. Он честен, благороден и, практически не победим. За это и получил свое прозвище - Неваляшка. Но все меняется, когда Неваляшка влюбляется в Катю. Тем более, что ее незаслуженно обидели. Постоять за честь "прекрасной дамы" становится для него главной целью, ради которой он готов пойти на все. Ему даже приходится вернуться на ринг и участвовать в турнире по боям без правил, чтобы найти обидчика Кати, ставя под угрозу собственное здоровье и даже жизнь.

Качество: SATRip
Формат: AVI
Видео кодек: XviD
Аудио кодек: АС-3
Видео: 720x304 (1.80:1), 25 fps, XviD build 50 ~2075 kbps avg, 0.379 bit/pixel
Аудио: 48 kHz, AC3 Dolby Digital, 2/0 (L,R) ch, ~192.00 kbps avg
Сторонней рекламы нет!
MediaInfo
GeneralComplete name : D:\Vytas\Video\Nevaliachka.2014.SATRip.Files-x.GeneralFilm.aviFormat : AVIFormat/Info : Audio Video InterleaveFile size : 1.36 GiBDuration : 1h 25mnOverall bit rate : 2 277 KbpsWriting application : VirtualDubModRus 1.5.10.2 (build 2542/release)Writing library : VirtualDubMod build 2542/release
VideoID : 0Format : MPEG-4 VisualFormat profile : Advanced Simple@L5Format settings, BVOP : 1Format settings, QPel : NoFormat settings, GMC : No warppointsFormat settings, Matrix : CustomCodec ID : XVIDCodec ID/Hint : XviDDuration : 1h 25mnBit rate : 2 075 KbpsWidth : 720 pixelsHeight : 304 pixelsDisplay aspect ratio : 2.35:1Frame rate : 25.000 fpsColor space : YUVChroma subsampling : 4:2:0Bit depth : 8 bitsScan type : ProgressiveCompression mode : LossyBits/(Pixel*Frame) : 0.379Stream size : 1.24 GiB (91%)Writing library : XviD 73
AudioID : 1Format : AC-3Format/Info : Audio Coding 3Mode extension : CM (complete main)Format settings, Endianness : BigCodec ID : 2000Duration : 1h 25mnBit rate mode : ConstantBit rate : 192 KbpsChannel(s) : 2 channelsChannel positions : Front: L RSampling rate : 48.0 KHzBit depth : 16 bitsCompression mode : LossyStream size : 117 MiB (8%)Alignment : Split accross interleavesInterleave, duration : 40 ms (1.00 video frame)Interleave, preload duration : 500 ms
Рип:
Релиз группа:
Раздача группы:
Скриншот c названием фильма Скриншоты
Скачать

Скачать торрент!

Как скачивать? · Что такое торрент? · Рейтинг и ограничения

Сайт не распространяет и не хранит электронные версии произведений, а лишь предоставляет доступ к создаваемому пользователями каталогу ссылок на торрент-файлы, которые содержат только списки хеш-сумм

[Профиль] [ЛС]
Показать сообщения:    
Ответить на тему

Текущее время: Сегодня 09:45

Часовой пояс: GMT + 4



Вы не можете начинать темы
Вы не можете отвечать на сообщения
Вы не можете редактировать свои сообщения
Вы не можете удалять свои сообщения
Вы не можете голосовать в опросах
Вы не можете прикреплять файлы к сообщениям
Вы не можете скачивать файлы