Отмщение / Месть / Revenge / Adauchi (Имаи Тадаси / Imai Tadashi) [1964, Япония, драма, DVDRip] VO (Andi) + Original Jap

Ответить на тему
 
Автор Сообщение

user ®

Стаж: 13 лет

Сообщений: 15071

Пост Пост: #1 от 02-Ноя-2014 10:45

[Цитировать]

Отмщение / Месть / Revenge / Adauchi
Страна: Япония
Студия: Toei Kyoto
Жанр: драма
Год выпуска: 1964
Продолжительность: 01:43:30
Перевод: Одноголосый закадровый Andi
Cубтитры: нет
Оригинальная аудиодорожка: японский
Режиссер: Имаи Тадаси / Imai Tadashi
В ролях: Накамура Кинноскэ (Nakamura Kinnosuke), Танба Тэцуро (Tanba Tetsuro), Мита Ёсико (Mita Yoshiko), Тамура Такахиро (Tamura Takahiro), Сасаки Аи (Sasaki Ai)
Описание: Мелкая ссора между двумя самураями, Эдзаки Синпати и Окуно Магодаю, заканчивается поединком, в котором Магодаю погибает. Стремление клана Окуно отомстить приводит к углублению конфликта, в который втягивается всё большее количество людей. Неторопливое повествование картины нагнетает атмосферу безысходности и обреченности героев, нарастая к финалу и заканчиваясь неизбежной гибелью. Великолепный шедевр, не уступающий по эмоциональному накалу страстей и уровню драматизма лучшим фильмам Масаки Кобаяси. Один из моих любимых самурайских фильмов.
II Сэмпл II IMDB II
Релиз группа:

Доп. информация:
За предоставленный исходный материал (DVD, русскую дорогу) спасибо Assassin's Creed и Andi999
Качество видео: DVDRip
Формат видео: AVI
Видео: Xvid 624x352 (16:9) 23.976fps Bit rate 1619Kbps b/p 0.307
Аудио 1: AC3 48.0 KHz 2ch. 192kbps rus vo
Аудио 2: AC3 48.0 KHz 2ch. 192kbps jap
MediaInfo
Общее
Полное имя : E:\torrent\Revenge.1964.DVDRip.avi
Формат : AVI
Формат/Информация : Audio Video Interleave
Размер файла : 1,46 Гбайт
Продолжительность : 1 ч. 43 м.
Общий поток : 2017 Кбит/сек
Программа кодирования : VirtualDubMod 1.5.10.3 (build 2550/release)
Библиотека кодирования : VirtualDubMod build 2550/release
Видео
Идентификатор : 0
Формат : MPEG-4 Visual
Профиль формата : Advanced Simple@L5
Параметр BVOP формата : 2
Параметр QPel формата : Нет
Параметр GMC формата : Без точки перехода
Параметр матрицы формата : Default (H.263)
Идентификатор кодека : XVID
Идентификатор кодека/Подсказка : XviD
Продолжительность : 1 ч. 43 м.
Битрейт : 1619 Кбит/сек
Ширина : 624 пикселя
Высота : 352 пикселя
Соотношение сторон : 16:9
Частота кадров : 23,976 кадра/сек
Цветовое пространство : YUV
Субдискретизация насыщенности : 4:2:0
Битовая глубина : 8 бит
Тип развёртки : Прогрессивная
Метод сжатия : С потерями
Бит/(Пиксели*Кадры) : 0.307
Размер потока : 1,17 Гбайт (80%)
Библиотека кодирования : XviD 1.2.1 (UTC 2008-12-04)
Аудио #1
Идентификатор : 1
Формат : AC-3
Формат/Информация : Audio Coding 3
Расширение режима : CM (complete main)
Параметр Endianness формата : Big
Идентификатор кодека : 2000
Продолжительность : 1 ч. 43 м.
Вид битрейта : Постоянный
Битрейт : 192 Кбит/сек
Каналы : 2 канала
Расположение каналов : Front: L R
Частота : 48,0 КГц
Битовая глубина : 16 бит
Метод сжатия : С потерями
Размер потока : 142 Мбайт (10%)
Выравнивание : Разделение по промежуткам
Продолжительность промежутка : 42 мс. (1,00 видеокадр)
Время предзагрузки промежутка : 500 мс.
Аудио #2
Идентификатор : 2
Формат : AC-3
Формат/Информация : Audio Coding 3
Расширение режима : CM (complete main)
Параметр Endianness формата : Big
Идентификатор кодека : 2000
Продолжительность : 1 ч. 43 м.
Вид битрейта : Постоянный
Битрейт : 192 Кбит/сек
Каналы : 2 канала
Расположение каналов : Front: L R
Частота : 48,0 КГц
Битовая глубина : 16 бит
Метод сжатия : С потерями
Размер потока : 142 Мбайт (10%)
Выравнивание : Разделение по промежуткам
Продолжительность промежутка : 42 мс. (1,00 видеокадр)
Время предзагрузки промежутка : 500 мс.
Скриншот c названием фильма Скриншоты
Скачать

Скачать торрент! Отмщение / Месть / Revenge / Adauchi (Имаи Тадаси / Imai Tadashi) [1964, Япония, драма, DVDRip] VO (Andi) + Original Jap

Как скачивать? · Что такое торрент? · Рейтинг и ограничения

Сайт не распространяет и не хранит электронные версии произведений, а лишь предоставляет доступ к создаваемому пользователями каталогу ссылок на торрент-файлы, которые содержат только списки хеш-сумм

[Профиль] [ЛС]
Показать сообщения:    
Ответить на тему

Текущее время: Сегодня 10:43

Часовой пояс: GMT + 4



Вы не можете начинать темы
Вы не можете отвечать на сообщения
Вы не можете редактировать свои сообщения
Вы не можете удалять свои сообщения
Вы не можете голосовать в опросах
Вы не можете прикреплять файлы к сообщениям
Вы не можете скачивать файлы