Молодежь / Young Ones (Джейк Пэлтроу / Jake Paltrow) [2014, США, Фантастика, боевик, драма, WEB-DLRip] VO (datynet)

Ответить на тему
 
Автор Сообщение

user ®

Стаж: 7 лет 7 месяцев

Сообщений: 20008

Пост Пост: #1 от 02-Ноя-2014 10:45

[Цитировать]

Молодежь / Young Ones
Страна: США
Жанр: Фантастика, боевик, драма
Год выпуска: 2014
Продолжительность: 01:39:53
Перевод: Одноголосый (закадровый) [datynet] по тексту [Janetta]
Оригинальная аудиодорожка: нет
Cубтитры: нет
Режиссер: Джейк Пэлтроу / Jake Paltrow
В ролях: Ричард Армитедж, Сара Уэйн Кэллис, Мэтт Уолш, Макс Дикон, Нэйтан Кресс, Алисия Дебнем Кери, Арлен Эскарпета, Джереми Самптер, Ли Уитэйкер, Кайл Дэвис
Описание: Когда Эрнест и его сын Жером потратили последние средства семьи на покупку роботизированного мула, для того чтобы доставлять продовольственные пайки для группы рабочих, которые бурят скважины для воды, они никогда не думали, что так сильно изменят свое будущее. Флем строит планы относительно дочери Эрнеста — Мэри и надеется вернуть себе земли, которыми владел его отец в период расцвета промышленного сельского хозяйства в начале XXI века. Когда желания Флема осуществляются путем блестящего использования лжи и манипулирования, происходит ряд событий, которые изменят их молодую жизнь навсегда и Жером вынужден будет сделать выбор, который не должен делать ни один ребенок.

Сэмпл
Качество: WEB-DLRip
Контейнер: AVI
Видео: : 640x272 (2.35:1), 23.976 fps, XviD build 50 ~883 kbps avg, 0.21 bit/pixel
Аудио: 48 kHz, MPEG Layer 3, 2 ch, ~128.00 kbps avg

MI
General
Complete name : C:\Users\Вячеслав\Downloads\Molodeg.2014.WEB-DLRip.740.avi
Format : AVI
Format/Info : Audio Video Interleave
File size : 729 MiB
Duration : 1h 39mn
Overall bit rate : 1 021 Kbps
Writing application : VirtualDubMod 1.5.10.3 | www.virtualdub-fr.org || (build 2550/release)
Writing library : VirtualDubMod build 2550/release
Video
ID : 0
Format : MPEG-4 Visual
Format profile : Advanced Simple@L5
Format settings, BVOP : 2
Format settings, QPel : No
Format settings, GMC : No warppoints
Format settings, Matrix : Default (H.263)
Codec ID : XVID
Codec ID/Hint : XviD
Duration : 1h 39mn
Bit rate : 883 Kbps
Width : 640 pixels
Height : 272 pixels
Display aspect ratio : 2.35:1
Frame rate : 23.976 fps
Color space : YUV
Chroma subsampling : 4:2:0
Bit depth : 8 bits
Scan type : Progressive
Compression mode : Lossy
Bits/(Pixel*Frame) : 0.212
Stream size : 631 MiB (87%)
Writing library : XviD 1.2.1 (UTC 2008-12-04)
Audio
ID : 1
Format : MPEG Audio
Format version : Version 1
Format profile : Layer 3
Codec ID : 55
Codec ID/Hint : MP3
Duration : 1h 39mn
Bit rate mode : Constant
Bit rate : 128 Kbps
Channel(s) : 2 channels
Sampling rate : 48.0 KHz
Compression mode : Lossy
Stream size : 91.4 MiB (13%)
Alignment : Aligned on interleaves
Interleave, duration : 42 ms (1.00 video frame)
Interleave, preload duration : 504 ms
Writing library : LAME3.98r
Encoding settings : -m s -V 4 -q 2 -lowpass 17 -b 128
Скриншоты
Скачать

Скачать торрент!

Как скачивать? · Что такое торрент? · Рейтинг и ограничения

Сайт не распространяет и не хранит электронные версии произведений, а лишь предоставляет доступ к создаваемому пользователями каталогу ссылок на торрент-файлы, которые содержат только списки хеш-сумм

[Профиль] [ЛС]
Показать сообщения:    
Ответить на тему

Текущее время: Сегодня 10:44

Часовой пояс: GMT + 4



Вы не можете начинать темы
Вы не можете отвечать на сообщения
Вы не можете редактировать свои сообщения
Вы не можете удалять свои сообщения
Вы не можете голосовать в опросах
Вы не можете прикреплять файлы к сообщениям
Вы не можете скачивать файлы