Весёлые ребята;) (Алексей Бобров) [2014, Комедия, DVB]

Ответить на тему
 
Автор Сообщение

user ®

Стаж: 7 лет 7 месяцев

Сообщений: 20008

Пост Пост: #1 от 02-Ноя-2014 04:25

[Цитировать]

Весёлые ребята;)
Год выпуска: 2014
Производство: Продюсерский Центр Андрея Кончаловского
Жанр: Комедия
Продолжительность: 01:23:42
Субтитры: Украинские (вшитые)
Режиссёр: Алексей Бобров
В ролях: Иван Дорн, Катерина Шпица, София Каштанова, Алексей Шевченков, Евгений Тихомиров, Ола Кейру, Сергей Газаров, Татьяна Лютаева, Алена Новицкая, Наталья Щукина...
Описание: Начинающий музыкант Костя Потехин, чтобы завоевать расположение красивой девушки, соглашается участвовать в музыкальном телевизионном конкурсе. Но участвовать нужно только со своей музыкальной группой, которой у него нет. За несколько дней ему предстоит собрать свою группу, найти надежных друзей и встретить настоящую любовь.

Качество: DVB
Контейнер: MPEG -PS
Видео: MPEG2 Video 768х576 @ 720x576 (4:3) 25.00fps ~3227 Kbps (0.311 bit/pixel)
Аудио: MPEG Audio 48000Hz 2 channels 192 Кбит/сек
Сторонней рекламы нет!
MediaInfo
Формат : MPEG-PSРазмер файла : 2,04 ГбайтПродолжительность : 1 ч. 23 м.Общий поток : 3488 Кбит/сек
ВидеоИдентификатор : 224 (0xE0)Формат : MPEG VideoВерсия формата : Version 2Профиль формата : Main@MainПараметр BVOP формата : ДаПараметр матрицы формата : По умолчаниюПродолжительность : 1 ч. 23 м.Вид битрейта : ПеременныйБитрейт : 3227 Кбит/секНоминальный битрейт : 15,0 Мбит/секШирина : 720 пикс.Высота : 576 пикс.Соотношение сторон : 4:3Частота кадров : 25,000 кадр/секСтандарт вещания : PALЦветовое пространство : YUVПодвыборка цветности : 4:2:0Битовая глубина : 8 битТип развёртки : ЧересстрочнаяПорядок развёртки : Верхнее поле первоеМетод сжатия : С потерямиБит/(Пиксели*Кадры) : 0.311Размер потока : 1,89 Гбайт (93%)
АудиоИдентификатор : 192 (0xC0)Формат : MPEG AudioВерсия формата : Version 1Профиль формата : Layer 2Продолжительность : 1 ч. 23 м.Вид битрейта : ПостоянныйБитрейт : 192 Кбит/секКаналы : 2 каналаЧастота : 48,0 КГцМетод сжатия : С потерямиРазмер потока : 115 Мбайт (6%)
Запись, монтаж и оформление:
Раздача группы:
Скриншот c названием фильма Скриншоты
Скачать

Скачать торрент!

Как скачивать? · Что такое торрент? · Рейтинг и ограничения

Сайт не распространяет и не хранит электронные версии произведений, а лишь предоставляет доступ к создаваемому пользователями каталогу ссылок на торрент-файлы, которые содержат только списки хеш-сумм

[Профиль] [ЛС]
Показать сообщения:    
Ответить на тему

Текущее время: Сегодня 20:00

Часовой пояс: GMT + 4



Вы не можете начинать темы
Вы не можете отвечать на сообщения
Вы не можете редактировать свои сообщения
Вы не можете удалять свои сообщения
Вы не можете голосовать в опросах
Вы не можете прикреплять файлы к сообщениям
Вы не можете скачивать файлы